<?xml version="1.0" standalone="no"?>
<!DOCTYPE svg PUBLIC "-//W3C//DTD SVG 1.1//EN" "http://www.w3.org/Graphics/SVG/1.1/DTD/svg11.dtd" >
<svg xmlns="http://www.w3.org/2000/svg">
<metadata>Generated by IcoMoon</metadata>
<defs>
<font id="icomoon" horiz-adv-x="1024">
<font-face units-per-em="1024" ascent="960" descent="-64" />
<missing-glyph horiz-adv-x="1024" />
<glyph unicode="&#x20;" horiz-adv-x="512" d="" />
<glyph unicode="&#xe900;" glyph-name="jw-profile" d="M727.398 418.048c-150.989 39.424-284.058-112.538-225.946-257.382h-193.792c-50.278 0-105.523 58.778-106.803 108.698l-0.256 426.342c4.659 59.085 51.149 105.83 110.080 111.411h306.739c50.432-0.87 110.029-56.166 110.029-106.957v-282.061zM315.494 687.053c-26.163-6.554-25.19-42.24 1.28-47.411l197.376-0.154c28.211 3.942 29.235 42.189 1.382 47.77l-200.038-0.205zM315.494 567.347c-26.829-6.758-24.883-43.776 2.611-47.514h291.789c28.979 4.096 28.979 43.827 0 47.872l-294.451-0.358zM315.494 447.59c-26.163-6.554-25.19-42.24 1.28-47.411h152.371c27.136 5.376 27.187 42.24 0 47.616l-153.651-0.205zM315.494 327.885c-24.678-4.147-25.395-41.779-1.178-46.848 12.851-2.714 76.442-2.458 90.47-0.512 26.061 3.533 26.931 41.933 2.458 47.104-11.981 2.509-79.104 2.458-91.75 0.307zM665.754 375.706c117.811 10.496 198.144-116.89 136.192-218.47-53.043-87.040-177.562-91.494-238.285-9.882-66.253 89.037-7.731 218.573 102.093 228.352zM722.534 282.982c-3.174-0.512-6.758-2.202-9.37-4.096l-49.357-49.357c-8.141 6.963-14.643 17.869-25.344 20.992-20.838 6.144-38.656-16.077-27.546-35.021 2.304-3.994 35.533-37.069 39.68-39.629 8.243-5.12 18.176-5.12 26.419 0 19.968 22.323 48.333 43.418 66.867 66.304 16.026 19.763 3.072 44.749-21.35 40.806z" />
<glyph unicode="&#xe901;" glyph-name="jw-Points" d="M776.96 644.301h-287.078c-15.565 0-28.16-12.595-28.16-28.16s12.595-28.16 28.16-28.16h287.078c15.565 0 28.16 12.595 28.16 28.16s-12.595 28.16-28.16 28.16zM776.96 309.043h-287.078c-15.565 0-28.16-12.595-28.16-28.16s12.595-28.16 28.16-28.16h287.078c15.565 0 28.16 12.595 28.16 28.16s-12.595 28.16-28.16 28.16zM776.96 532.531h-215.91c-15.565 0-28.16-12.595-28.16-28.16s12.595-28.16 28.16-28.16h215.91c15.565 0 28.16 12.595 28.16 28.16s-12.595 28.16-28.16 28.16zM776.96 420.813h-215.91c-15.565 0-28.16-12.595-28.16-28.16s12.595-28.16 28.16-28.16h215.91c15.565 0 28.16 12.595 28.16 28.16s-12.595 28.16-28.16 28.16zM729.6 778.547h-283.904c-82.739 0-151.194-61.952-161.587-141.875 3.942 2.355 8.141 4.301 12.595 5.734 6.042 1.997 12.544 3.021 19.046 3.021 7.27 0 14.438-1.382 21.197-3.891 11.776 49.152 56.013 85.811 108.749 85.811h283.904c61.645 0 111.821-50.176 111.821-111.821v-335.002c0-61.645-50.176-111.821-111.821-111.821h-283.904c-51.661 0-95.232 35.226-108.032 82.893l-21.965 16.128-29.338-21.606c15.821-73.421 81.254-128.614 159.334-128.614h283.904c89.907 0 163.021 73.114 163.021 163.021v335.002c0 89.907-73.114 163.021-163.021 163.021zM322.099 313.856l81.459-59.853c4.659-3.43 9.37-4.096 12.544-4.096 6.912 0 13.158 3.123 17.203 8.653s5.222 12.646 3.123 19.149l-33.792 104.602 88.883 64.922c9.472 6.912 11.52 20.224 4.608 29.696-3.994 5.478-10.394 8.704-17.101 8.704h-109.722l-33.331 103.936c-1.69 5.222-5.171 9.37-9.626 11.93-3.123 1.843-6.81 2.867-10.65 2.867-2.15 0-4.403-0.358-6.502-1.024-6.502-2.099-11.674-7.219-13.773-13.773l-33.331-103.936h-109.568c-11.725 0-21.248-9.574-21.197-21.299 0-6.758 3.277-13.158 8.704-17.152l37.888-27.75 50.944-37.222v-0.102l-33.894-105.011c-2.867-8.499 0.256-18.022 7.578-23.142l0.717-0.512c4.454-3.277 9.062-3.994 12.083-3.994s7.782 0.717 12.237 4.096l88.115 64.87 6.349-4.71z" />
<glyph unicode="&#xe902;" glyph-name="jw-points" d="M512 770.765c-178.278 0-322.765-144.486-322.765-322.765s144.486-322.765 322.765-322.765 322.765 144.486 322.765 322.765-144.486 322.765-322.765 322.765zM722.483 483.123l-81.254-69.734c-7.629-6.554-10.957-16.794-8.602-26.522l24.781-104.192c5.53-23.142-19.661-41.472-39.987-29.082l-91.392 55.757c-8.55 5.222-19.354 5.222-27.904 0l-91.392-55.757c-20.326-12.39-45.517 5.888-39.987 29.082l24.781 104.192c2.304 9.779-1.024 20.019-8.602 26.522l-81.254 69.734c-18.074 15.514-8.448 45.107 15.258 47.053l106.752 8.602c9.984 0.819 18.688 7.117 22.579 16.384l41.165 98.816c9.165 21.965 40.294 21.965 49.459 0l41.165-98.816c3.84-9.267 12.544-15.565 22.579-16.384l106.752-8.602c23.757-1.894 33.382-31.539 15.258-47.053z" />
<glyph unicode="&#xe903;" glyph-name="jw-spin-win" d="M776.909 644.301h-287.078c-15.565 0-28.16-12.595-28.16-28.16s12.595-28.16 28.16-28.16h287.078c15.565 0 28.16 12.595 28.16 28.16s-12.595 28.16-28.16 28.16zM776.909 309.043h-287.078c-15.565 0-28.16-12.595-28.16-28.16s12.595-28.16 28.16-28.16h287.078c15.565 0 28.16 12.595 28.16 28.16s-12.595 28.16-28.16 28.16zM776.909 532.531h-215.91c-15.565 0-28.16-12.595-28.16-28.16s12.595-28.16 28.16-28.16h215.91c15.565 0 28.16 12.595 28.16 28.16s-12.595 28.16-28.16 28.16zM776.909 420.813h-215.91c-15.565 0-28.16-12.595-28.16-28.16s12.595-28.16 28.16-28.16h215.91c15.565 0 28.16 12.595 28.16 28.16s-12.595 28.16-28.16 28.16zM327.578 264.602c5.069 1.178 10.291 0.922 15.411 1.792 41.677 6.912 77.261 25.242 106.035 56.32 22.477 24.269 38.093 52.173 45.568 84.531 1.843 8.090 3.072 16.282 3.635 24.576 0.051 0.922-0.256 1.946 0.563 2.714v21.709c-1.229 5.069-1.178 10.24-1.894 15.36-5.478 38.144-19.405 72.55-46.336 100.608-29.082 30.31-64.307 49.92-106.035 56.934-6.605 1.126-13.312 1.638-20.019 1.587-1.126 0-2.355-0.461-3.328 0.512h-12.134c-2.406-1.178-4.966-0.358-7.475-0.563-38.502-2.816-72.755-16.333-102.502-40.909-26.112-21.555-45.414-48.128-56.934-80.128-6.502-18.022-9.83-36.71-10.138-55.859 0-0.922 0.256-1.946-0.512-2.714v-5.12c1.178-4.966 0.666-10.086 1.126-15.155 3.277-38.656 17.715-72.602 42.957-101.99 30.157-35.123 68.301-55.757 113.971-62.822 3.942-0.614 8.090 0 11.93-1.434h26.214zM475.136 454.963c3.891 0 7.117-3.277 7.066-7.117 0-3.84-3.277-7.014-7.168-7.014-3.994 0-7.578 3.379-7.526 7.117 0 3.738 3.686 7.066 7.629 7.014zM155.75 440.883c-4.608 0.102-7.782 3.021-7.782 7.066 0 3.789 3.533 7.066 7.578 7.066 3.942 0 6.656-3.021 6.605-7.373 0-3.994-2.765-6.861-6.4-6.81zM314.726 280.525c-3.174 0-7.066 4.25-6.912 7.526 0.205 3.942 3.328 7.168 7.066 7.168 3.994 0 7.424-3.174 7.526-7.066 0.102-4.096-3.533-7.68-7.68-7.629zM428.237 327.731c-4.096 0-7.373 3.174-7.424 7.117 0 3.789 3.174 6.912 7.168 7.066s7.475-3.021 7.526-6.963c0.051-3.942-3.174-7.168-7.27-7.168zM439.398 392.704c-9.933-23.194-25.498-41.779-45.978-56.32-6.758-4.813-14.029-8.806-21.555-12.339-1.126-0.563-2.355-0.973-3.174-1.28-2.15-0.307-2.099 1.229-2.509 2.202-5.478 13.107-10.906 26.266-16.384 39.424-6.144 14.797-12.339 29.594-18.586 44.339-0.666 1.587-0.358 2.202 1.075 2.918 8.038 4.045 14.182 10.035 18.278 18.074 1.075 2.15 2.253 2.355 4.506 1.434 27.546-11.469 55.091-22.886 82.739-34.202 2.509-1.024 2.56-2.048 1.638-4.198zM428.134 568.064c4.045 0 7.373-3.226 7.373-7.168s-3.328-7.014-7.475-6.963c-3.994 0.051-7.168 3.123-7.219 6.963 0 3.942 3.277 7.219 7.322 7.219zM331.418 487.782c10.496 24.986 21.043 49.92 31.539 74.906 1.024 2.458 2.202 4.864 3.021 7.373 0.87 2.765 2.253 2.918 4.71 1.894 4.045-1.69 7.987-3.43 11.776-5.632 25.242-14.797 44.288-35.226 56.525-61.901q1.997-4.352-2.304-6.093c-27.085-11.162-54.221-22.374-81.306-33.536-0.768-0.307-1.587-0.614-2.202-0.87-1.28-0.102-1.485 0.87-1.894 1.587-4.454 8.141-10.701 14.541-18.995 18.739-2.099 1.075-1.331 2.202-0.768 3.584zM312.934 611.482c4.045 0.102 7.526-3.072 7.578-6.912 0.102-3.891-3.226-7.117-7.322-7.219-4.045-0.051-7.424 3.174-7.424 7.117 0 3.738 3.277 6.912 7.168 7.014zM202.086 568.064c4.045 0 7.322-3.328 7.27-7.27s-3.379-6.963-7.578-6.912c-3.942 0.102-7.117 3.226-7.117 7.014 0 3.891 3.379 7.168 7.424 7.117zM202.086 327.731c-4.147 0-7.526 3.226-7.475 7.117 0 4.096 3.533 7.066 8.243 7.014 3.021 0 6.451-3.328 6.502-6.195 0-4.71-2.97-7.987-7.27-7.987zM298.752 407.91c-11.622-27.597-23.142-55.245-34.765-82.842-0.41-0.922-0.307-2.458-2.048-2.355-0.512 0.205-0.973 0.41-1.485 0.614-31.846 13.824-54.835 36.608-69.325 68.096-1.946 4.198-1.792 4.25 2.509 6.042 27.187 11.213 54.374 22.426 81.562 33.69 1.792 0.717 2.867 0.973 3.942-1.178 4.147-7.987 10.342-13.978 18.278-18.125 1.997-1.075 2.099-1.997 1.28-3.942zM298.138 484.147c-8.397-4.403-15.155-10.496-19.405-19.149-1.024-2.048-2.355-0.768-3.482-0.307-15.718 6.451-31.437 12.954-47.104 19.456-11.981 4.966-23.91 9.984-35.942 14.797-2.099 0.87-2.406 1.69-1.587 3.738 5.581 14.285 14.336 26.47 24.525 37.734 12.134 13.466 26.624 23.706 43.162 31.13 4.301 1.946 4.301 1.894 6.093-2.355 11.469-27.341 22.938-54.63 34.458-81.971 0.205-0.512 0.41-0.973 0.614-1.485 0.102-0.973-0.666-1.229-1.28-1.587zM315.238 462.541c7.936-0.051 14.182-6.451 14.234-14.541 0.051-8.243-6.246-14.746-14.336-14.746-8.141 0-14.387 6.4-14.387 14.694 0 8.192 6.4 14.643 14.49 14.592zM729.549 778.547h-283.904c-70.349 0-130.406-44.851-153.19-107.418 1.894 0.205 3.738 0.358 5.632 0.512l1.382 0.666h38.451l1.126-1.126c3.072-0.256 6.093-0.717 9.114-1.178 19.149 34.15 55.654 57.293 97.485 57.293h283.904c61.645 0 111.821-50.176 111.821-111.821v-335.002c0-61.645-50.176-111.821-111.821-111.821h-283.904c-41.83 0-78.336 23.091-97.485 57.139-3.43-0.512-6.502-0.768-8.96-0.922-0.922-0.051-1.843-0.102-2.765-0.205l-4.198-0.973h-38.554l-0.922 0.358c23.040-62.157 82.842-106.547 152.883-106.547h283.904c89.907 0 163.021 73.114 163.021 163.021v335.002c0 89.907-73.114 163.021-163.021 163.021z" />
<glyph unicode="&#xe904;" glyph-name="jw-record" d="M567.859 587.674v182.733c25.856-9.779 49.306-24.883 68.864-44.442l97.331-97.382c19.558-19.507 34.714-43.008 44.442-68.813h-182.733c-15.411 0-27.955 12.493-27.955 27.955v0zM791.398 490.342v-237.875c-0.102-77.107-62.566-139.571-139.674-139.674h-279.398c-77.107 0.102-139.571 62.566-139.674 139.674v391.117c0.102 77.107 62.566 139.571 139.674 139.674h126.157c4.557 0 9.062-0.358 13.568-0.666v-194.867c0-46.285 37.53-83.814 83.814-83.814h194.867c0.307-4.506 0.666-9.011 0.666-13.568v0zM567.859 252.416c0 15.411-12.493 27.955-27.955 27.955h-139.674c-15.411 0-27.955-12.493-27.955-27.955s12.493-27.955 27.955-27.955h139.674c15.411 0 27.955 12.493 27.955 27.955zM651.674 364.186c0 15.411-12.493 27.955-27.955 27.955h-223.488c-15.411 0-27.955-12.493-27.955-27.955s12.493-27.955 27.955-27.955h223.488c15.411 0 27.955 12.493 27.955 27.955z" />
<glyph unicode="&#xe905;" glyph-name="jw-reedem-point" d="M174.131 429.158l112.691-82.278-42.803-132.506c-14.182-42.189 1.024-88.73 37.478-114.381 35.789-26.419 84.736-26.214 120.269 0.614l110.182 81.101 110.234-80.998c45.466-33.434 109.363-23.706 142.797 21.76 19.456 26.47 24.986 60.672 14.899 91.904l-42.803 132.506 112.691 82.278c45.517 33.28 55.45 97.178 22.17 142.746-19.2 26.266-49.766 41.83-82.33 41.83h-138.394l-41.984 130.918c-17.203 53.709-74.701 83.302-128.461 66.099-31.386-10.086-56.013-34.662-66.099-66.099l-41.984-130.918h-138.291c-56.422-0.102-102.093-45.875-101.99-102.298 0-32.512 15.616-63.078 41.83-82.33h-0.102z" />
<glyph unicode="&#xe907;" glyph-name="jw-account" d="M854.323 223.949c-1.792 102.093-85.709 190.976-187.597 193.69-2.202 0.051-4.454 0.102-6.656 0.154-41.626-29.952-92.672-47.667-147.763-47.667h-0.768c-54.272 0.154-105.677 16.896-148.378 47.77-2.816-0.051-5.581-0.102-8.397-0.154-93.030-2.202-177.51-85.658-183.654-178.432-2.765-41.626-1.434-83.456-1.69-125.235-0.154-25.19 8.499-33.741 33.69-33.741 102.707 0 205.414 0 308.122 0 103.987 0 207.974 0 311.962 0 21.658 0 31.232 9.523 31.283 31.078 0.102 37.53 0.461 75.008-0.205 112.538zM511.693 431.514c106.189-0.307 192.256 85.146 192.461 191.078 0.154 106.598-84.634 192.563-190.464 193.075-107.059 0.512-193.434-84.685-193.792-191.232-0.358-107.213 84.531-192.614 191.795-192.922z" />
<glyph unicode="&#xe908;" glyph-name="jw-affiliate" d="M724.941 377.498c-2.304 0-4.557-0.256-6.81-0.358l-106.752 182.17c26.061 25.702 42.24 61.338 42.24 100.813 0 78.182-63.386 141.619-141.619 141.619s-141.619-63.386-141.619-141.619c0-39.27 15.974-74.752 41.779-100.403l-106.957-182.528c-2.048 0.102-4.096 0.307-6.195 0.307-78.182 0-141.619-63.386-141.619-141.619s63.386-141.619 141.619-141.619c65.946 0 121.242 45.158 136.96 106.189h152.013c15.718-61.030 71.014-106.189 136.96-106.189 78.182 0 141.619 63.386 141.619 141.619s-63.386 141.619-141.619 141.619zM473.344 523.981c12.288-3.482 25.242-5.478 38.656-5.478s25.958 1.946 38.093 5.325l98.816-168.653c-29.798-18.995-51.866-48.794-60.928-83.917h-152.013c-9.114 35.328-31.386 65.229-61.389 84.224l98.765 168.499z" />
<glyph unicode="&#xe909;" glyph-name="jw-announcement" d="M834.15 335.77c-4.659 0-9.216 1.075-13.363 3.174l-60.006 30.003c-14.848 7.424-20.838 25.446-13.414 40.243 7.424 14.848 25.446 20.838 40.243 13.414l60.006-30.003c14.848-7.373 20.838-25.395 13.466-40.243-5.069-10.189-15.514-16.64-26.88-16.589zM787.61 608.666l60.006 30.003c14.848 7.424 20.838 25.446 13.414 40.243-7.424 14.848-25.446 20.838-40.243 13.414v0l-60.006-30.003c-14.848-7.424-20.838-25.446-13.414-40.243 7.424-14.848 25.446-20.838 40.243-13.414zM864.154 515.686c0 16.589-13.414 30.003-30.003 30.003h-60.006c-16.589 0-30.003-13.414-30.003-30.003s13.414-30.003 30.003-30.003h60.006c16.589 0 30.003 13.414 30.003 30.003zM684.186 245.76v539.904c0 16.589-13.414 30.003-30.003 30.003s-30.003-13.414-30.003-30.003c0-88.474-77.466-119.962-149.965-119.962h-209.971c-66.253 0-119.962-53.709-119.962-119.962v-60.006c0-66.253 53.709-119.962 119.962-119.962h209.971c72.499 0 149.965-31.539 149.965-119.962 0-16.589 13.414-30.003 30.003-30.003s30.003 13.414 30.003 30.003zM389.837 305.766h-125.542c-13.978 0.051-27.853 1.741-41.472 5.018l74.957-167.424c12.851-28.928 41.523-47.514 73.165-47.514 40.806 0.051 73.779 33.178 73.728 73.933 0 10.394-2.253 20.685-6.502 30.208l-48.384 105.83z" />
<glyph unicode="&#xe90a;" glyph-name="jw-arcade" d="M818.278 659.2c-27.136 48.282-75.418 75.418-129.741 75.418h-359.066c-54.323 0-102.605-27.136-129.741-75.418-33.178-60.365-51.302-126.72-51.302-196.147 0-165.939 66.406-301.722 150.886-301.722 45.261 0 81.459 42.24 108.646 129.741 3.021 12.083 15.104 21.146 30.157 21.146h147.866c12.083 0 24.115-9.062 30.157-21.146 27.136-87.501 63.386-129.741 108.646-129.741 84.48 0 150.886 135.782 150.886 301.722-6.042 69.427-24.115 135.782-57.344 196.147zM419.994 493.261h-30.157v-30.157c0-18.125-12.083-30.157-30.157-30.157s-30.157 12.083-30.157 30.157v30.157h-30.157c-18.125 0-30.157 12.083-30.157 30.157s12.083 30.157 30.157 30.157h30.157v30.157c0 18.125 12.083 30.157 30.157 30.157s30.157-12.083 30.157-30.157v-30.157h30.157c18.125 0 30.157-12.083 30.157-30.157s-12.083-30.157-30.157-30.157zM619.11 432.896c-24.115 0-45.261 21.146-45.261 45.261s21.146 45.261 45.261 45.261 45.261-21.146 45.261-45.261-24.115-45.261-45.261-45.261zM706.611 523.418c-21.146 0-45.261 21.146-45.261 45.261s24.115 45.261 45.261 45.261 45.261-21.146 45.261-45.261-21.146-45.261-45.261-45.261z" />
<glyph unicode="&#xe90b;" glyph-name="jw-bank" d="M153.293 553.626c-13.466 24.986-11.674 55.398 4.71 78.592 13.107 19.2 30.618 34.97 51.098 45.978l229.786 119.603c45.824 23.859 100.403 23.859 146.278 0l229.786-119.706c20.48-11.008 37.99-26.726 51.098-45.978 16.333-23.194 18.176-53.658 4.71-78.592-14.49-27.392-43.008-44.493-74.035-44.288h-569.395c-31.027-0.205-59.597 16.896-74.035 44.339zM848.998 141.619c0 33.843-27.443 61.286-61.286 61.286v306.381h-61.286v-306.381h-91.904v306.381h-61.286v-306.381h-122.522v306.381h-61.286v-306.381h-91.904v306.381h-61.286v-306.381c-33.843 0-61.286-27.443-61.286-61.286-16.896 0-30.618-13.722-30.618-30.618s13.722-30.618 30.618-30.618h673.997c16.896 0 30.618 13.722 30.618 30.618s-13.722 30.618-30.618 30.618z" />
<glyph unicode="&#xe90c;" glyph-name="jw-call" d="M848.435 478.669c-16.896 0-30.618 13.722-30.618 30.618-0.154 135.27-109.773 244.941-245.043 245.043-16.896 0-30.618 13.722-30.618 30.618s13.722 30.618 30.618 30.618c169.114-0.205 306.125-137.216 306.33-306.33 0-16.896-13.722-30.618-30.618-30.618zM756.531 509.286c0 101.53-82.278 183.808-183.808 183.808-16.896 0-30.618-13.722-30.618-30.618s13.722-30.618 30.618-30.618c67.686 0 122.522-54.835 122.522-122.522 0-16.896 13.722-30.618 30.618-30.618s30.618 13.722 30.618 30.618zM823.398 136.704l27.853 32.154c36.915 37.069 36.915 97.024 0 134.093-0.973 0.973-74.65 57.651-74.65 57.651-36.762 34.97-94.515 34.918-131.123-0.205l-58.368-49.203c-96.256 39.834-172.646 116.378-212.326 212.685l48.998 58.214c35.123 36.659 35.226 94.413 0.205 131.174 0 0-56.781 73.626-57.702 74.547-36.352 36.608-95.386 37.222-132.506 1.434l-35.226-30.618c-208.128-241.51 240.026-686.182 489.421-678.195 50.893-0.307 99.738 19.968 135.424 56.218z" />
<glyph unicode="&#xe90d;" glyph-name="jw-change-password" d="M726.477 557.568v43.622c0 118.426-96 214.477-214.477 214.477s-214.477-96-214.477-214.477v-43.622c-55.757-24.32-91.853-79.36-91.904-140.186v-183.808c0.102-84.582 68.608-153.088 153.19-153.19h306.381c84.582 0.102 153.088 68.608 153.19 153.19v183.808c-0.102 60.826-36.147 115.866-91.904 140.186zM542.618 294.81c0-16.896-13.722-30.618-30.618-30.618s-30.618 13.722-30.618 30.618v61.286c0 16.896 13.722 30.618 30.618 30.618s30.618-13.722 30.618-30.618v-61.286zM665.19 570.573h-306.381v30.618c0 84.582 68.608 153.19 153.19 153.19s153.19-68.608 153.19-153.19v-30.618z" />
<glyph unicode="&#xe90e;" glyph-name="jw-chat" d="M534.682 773.478c-94.464 6.246-186.88-28.211-253.542-94.976s-101.12-159.232-94.566-253.696c11.981-172.749 164.506-303.002 354.867-303.002h160.87c74.957 0 135.936 60.979 135.936 135.936v181.043c0 176.128-133.325 323.123-303.514 334.694zM671.744 472.371h-337.357c-9.523 0-17.254 7.731-17.254 17.254v18.637c0 9.523 7.731 17.254 17.254 17.254h337.357c9.523 0 17.254-7.731 17.254-17.254v-18.637c0-9.523-7.731-17.254-17.254-17.254zM528.384 353.075h-193.997c-9.523 0-17.254 7.731-17.254 17.254v18.637c0 9.523 7.731 17.254 17.254 17.254h193.997c9.523 0 17.254-7.731 17.254-17.254v-18.637c0-9.523-7.731-17.254-17.254-17.254z" />
<glyph unicode="&#xe90f;" glyph-name="jw-cock-fighting" d="M624.995 135.437c1.364-6.386 2.020-12.719 0.927-19.105-2.894-16.759-19.325-25.6-35.753-19.271-16.049 6.17-42.468-2.129-45.906-23.146-2.237-13.592-4.095-28.439-16.211-37.174-11.954-8.569-23.908-4.42-34.934 2.183-36.301 15.829-54.423 25.383-83.189 52.458-15.775 14.847-29.041 43.287-44.816 79.642-2.728 8.569-0.982 11.791 8.678 12.993 43.506 5.459 86.519 75.276 81.442 119.219-2.62 22.489-13.101 53.277-21.999 74.074-2.237 5.185-9.825 16.049-15.121 19.159-14.465 8.407-22.926-1.036-26.256-4.258-4.477-4.312-3.767-9.28-1.472-14.411 8.843-19.542 13.429-40.068 15.886-61.41 4.857-41.76-28.111-71.891-68.998-62.337-43.124 10.099-67.36 48.255-59.826 94.272 3.056 18.668 7.588 37.009 14.685 54.479 3.767 9.28 0.599 11.189-8.024 10.918-16.868-0.437-32.26-5.513-46.837-13.754-6.441-3.658-13.101-7.151-19.978-1.31-6.332 5.405-6.004 12.502-4.203 19.924 7.314 30.186 28.713 48.201 54.096 62.72 4.42 2.565 9.006 4.914 15.558 8.461-24.51 11.189-48.035 14.902-72.656 11.9-17.633-2.183-34.555-6.989-50.438-15.121-7.205-3.658-14.573-5.513-20.96 1.364-6.606 7.151-3.276 13.974 1.201 20.689 24.946 37.174 57.589 62.175 103.878 65.177 9.662 0.599 12.008 3.384 7.75 13.155-13.318 30.514-9.172 61.41 1.638 91.487 16.594 46.018 45.144 84.664 76.64 121.402 4.968 5.841 11.463 7.75 18.232 3.165 7.205-4.857 7.696-11.683 3.929-19.051-0.927-1.801-2.075-3.439-3.002-5.185-3.658-7.097-5.95-14.519-0.656-21.562 5.351-7.097 13.375-8.624 21.616-7.425 26.365 3.929 47.544 18.452 68.070 34.061 7.043 5.351 13.429 11.463 20.469 16.759 11.517 8.624 22.053 4.694 24.892-9.497 1.966-9.825 3.547-19.707 7.805-28.93 7.97-17.359 41.104-22.273 59.227-15.829 19.707 6.989 35.374 20.198 50.658 33.952 7.151 6.441 13.538 13.7 20.743 20.032 10.752 9.443 21.67 5.293 24.456-8.843 1.855-9.443 1.855-19.051 4.694-28.439 3.547-11.683 7.75-20.087 24.564-22.544 11.737-1.692 22.273 6.004 38.866 18.069 16.157 11.791 27.075-0.437 30.514-27.948 6.989-55.843 9.172-72.545-9.825-107.753-13.754-25.437-23.254-47.218-76.42-68.399 0.437-4.968 4.532-5.841 7.314-7.696 68.507-45.47 115.615-61.518 172.002-121.236 25.657-27.184 42.359-59.173 49.456-96.019 1.364-7.151 1.692-14.411 0.819-21.562-2.403-19.87-18.831-29.749-37.502-22.709-14.137 5.351-13.866 7.479-28.493 9.662-10.316 1.53-21.508-10.099-22.161-22.161-0.491-9.226-0.656-11.517 0.22-20.797 2.291-24.946-16.54-38.701-39.466-28.439-39.466 19.816-53.223-2.728-50.055-20.906 1.036-6.004 2.403-11.737 2.291-17.795-0.437-21.725-16.648-32.697-37.009-24.838-11.737 4.532-16.702 12.008-29.15 12.719-19.87 1.147-25.6-20.851-22.053-37.445zM368.6 562.796c0.163-20.252 16.702-37.066 36.409-37.066 20.523 0 37.557 16.976 37.557 37.502 0 20.689-17.030 37.828-37.391 37.557-20.851-0.274-36.792-16.814-36.572-37.993z" />
<glyph unicode="&#xe910;" glyph-name="jw-coins" d="M420.096 693.094c0 67.686 102.861 122.573 229.786 122.573s229.786-54.886 229.786-122.573-102.861-122.573-229.786-122.573-229.786 54.886-229.786 122.573zM649.882 509.286c-31.488 0-61.286 3.533-88.576 9.626-41.626 31.232-109.875 51.61-187.187 51.61-126.925 0-229.786-54.886-229.786-122.573s102.861-122.573 229.786-122.573 229.786 54.886 229.786 122.573c0 0.87-0.205 1.741-0.256 2.611h0.256v-63.898c0-67.686-102.861-122.573-229.786-122.573s-229.786 54.886-229.786 122.573v-61.286c0-67.686 102.861-122.573 229.786-122.573s229.786 54.886 229.786 122.573v-61.286c0-67.686-102.861-122.573-229.786-122.573s-229.786 54.886-229.786 122.573v-61.286c0-67.686 102.861-122.573 229.786-122.573s229.786 54.886 229.786 122.573v2.458c14.848-1.587 30.208-2.458 45.978-2.458 126.925 0 229.786 54.886 229.786 122.573v61.286c0-64.922-94.72-117.914-214.477-122.163v61.286c119.757 4.25 214.477 57.19 214.477 122.163v61.286c0-64.922-94.72-117.914-214.477-122.163v61.286c119.757 4.25 214.477 57.19 214.477 122.163v61.286c0-67.686-102.861-122.573-229.786-122.573z" />
<glyph unicode="&#xe911;" glyph-name="jw-crash" d="M702.005 518.695c-4.72-42.113-42.113-68.806-83.438-59.682s-71.061 50.661-66.342 92.773c4.72 42.113 42.113 68.806 83.438 59.682 41.378-9.125 71.061-50.661 66.342-92.773zM630.261 246.668c-8.495-22.131-19.352-43.004-32.411-62.25-48.668-68.177-133.050-98.542-218.587-78.666l-29.945 6.608 16.624 148.102c4.772 52.706-31.991 104.101-83.386 116.635l-145.48 32.149 3.409 30.47c8.863 87.371 64.873 157.332 145.165 181.351 22.446 6.136 45.731 9.65 69.384 10.541 127.019 126.914 262.219 165.827 449.654 129.956l1.259-0.262c57.741-12.587 99.381-70.433 92.93-129.222-0.104-0.734-0.158-1.521-0.262-2.255-27.061-191.682-105.098-303.23-268.46-383.155v0zM808.99 651.010c1.049 8.287-4.615 16.624-12.797 18.722-164.149 31.256-271.502-1.416-382.63-116.321-28.896-30.732-55.276-63.929-78.876-99.329 65.293-32.095 111.758-97.126 120.988-169.289 41.116 10.855 81.078 25.069 119.52 42.48 144.955 68.125 210.562 158.853 233.795 323.736zM176.621 315.265c-25.855-18.408-48.091-86.322-56.482-114.748l-10.437-35.19 36.658-1.469c29.369-1.207 100.43-1.94 126.285 16.624 33.354 24.072 38.913 73.526 12.482 110.814-26.956 36.344-74.837 46.937-108.454 23.966z" />
<glyph unicode="&#xe912;" glyph-name="jw-deposit" d="M493.722 110.899c-61.901 0-123.802-0.41-185.651 0.102-94.822 0.768-178.176 74.854-191.13 169.011-0.973 7.014-1.843 14.029-1.843 21.146 0 98.97-0.512 197.939 0.256 296.858 0.41 47.974 15.974 91.29 48.486 127.232 30.72 33.946 70.195 51.405 114.995 57.958 10.854 1.587 21.76 2.253 32.717 2.253 122.829-0.051 245.606 0.205 368.435-0.205 99.533-0.358 174.592-67.43 186.982-165.939 2.97-23.706-4.198-31.59-28.314-32.051-26.368-0.512-52.89 2.253-79.104-2.15-56.32-9.472-103.322-59.904-111.77-116.378-12.8-85.248 57.702-158.874 138.342-159.539 16.742-0.154 33.536-0.717 50.278 0 20.736 0.922 35.277-6.81 30.822-33.741-10.035-60.774-37.786-109.107-92.467-139.827-28.006-15.718-58.47-23.347-90.522-24.576-4.198-0.154-8.397-0.154-12.544-0.154-59.29 0-118.63 0-177.92 0v0zM824.474 530.022c14.49 0 28.979 0.205 43.469 0 22.733-0.358 40.653-17.51 41.062-40.294 0.563-27.699 0.563-55.398 0-83.046-0.461-22.733-18.381-40.090-41.114-40.294-28.006-0.256-56.064-0.563-84.019 0.154-41.83 1.024-77.261 35.994-80.282 78.336-2.816 39.219 28.211 78.336 68.813 84.122 17.050 2.406 34.714 0.41 52.070 0.41 0 0.256 0 0.461 0 0.717z" />
<glyph unicode="&#xe913;" glyph-name="jw-disconection-policy" d="M934.195 365.619v-46.182c-4.045-20.224-7.936-40.499-17.254-59.085-37.632-75.213-98.355-115.354-182.682-115.866-156.826-0.87-313.651-0.256-470.477-0.256-9.318 0-18.637 0.41-27.904 1.741-77.363 11.162-140.186 76.902-145.562 154.829-4.557 66.099 21.146 118.835 75.571 156.928 6.758 4.71 8.909 9.165 6.451 17.050-4.864 15.514-4.301 31.386-1.69 47.309 10.701 65.587 77.722 110.285 142.234 94.464 7.987-1.946 11.674 0 15.411 7.168 46.387 88.576 140.851 138.445 238.694 126.413 105.933-13.005 190.362-95.283 205.517-200.909 1.331-9.165 4.966-12.902 13.722-15.206 55.808-14.694 97.28-48.026 125.286-98.304 12.186-21.862 18.278-45.773 22.682-70.195zM408.576 309.606c0.102-12.288 7.373-23.398 18.534-27.75 13.875-5.427 25.856-1.843 36.147 8.346 17.715 17.613 35.379 35.328 53.043 52.992q8.653 8.653 17.254 0.051c18.278-18.227 36.352-36.659 54.835-54.682 13.21-12.902 31.181-13.414 43.725-1.946 13.312 12.186 13.619 31.642 0.205 45.414-18.381 18.893-37.222 37.325-55.859 56.013-7.578 7.629-7.578 7.68 0.205 15.514 18.227 18.278 36.506 36.557 54.733 54.784 8.806 8.806 12.8 19.149 9.728 31.488-5.888 23.654-33.997 31.283-52.224 13.824-19.046-18.227-37.376-37.171-56.064-55.808-8.090-8.038-8.141-8.038-16.23 0-18.278 18.227-36.506 36.506-54.784 54.784-7.578 7.578-16.435 12.032-27.392 10.342-12.032-1.894-20.787-8.346-25.088-20.019-4.506-12.339-1.792-23.398 7.27-32.614 18.842-19.2 37.837-38.298 57.088-57.088 5.683-5.53 5.632-9.165 0-14.694-18.33-17.766-36.198-36.045-54.323-54.067-6.912-6.912-11.264-14.797-10.906-24.832z" />
<glyph unicode="&#xe914;" glyph-name="jw-download-app" d="M665.19 815.667h-138.342c-5.018 0-9.933-0.41-14.848-0.717-4.915 0.358-9.882 0.717-14.848 0.717h-138.342c-84.48 0-153.19-68.762-153.19-153.242v-428.902c0-84.48 68.71-153.19 153.19-153.19h306.381c84.48 0 153.19 68.71 153.19 153.19v428.902c0 84.48-68.71 153.19-153.19 153.242zM702.515 377.293l-82.893-82.944c-29.645-29.645-68.659-44.493-107.622-44.493s-77.978 14.848-107.622 44.493l-82.893 82.944c-16.333 16.333-19.405 40.858-9.165 60.262 2.355 4.454 5.427 8.653 9.165 12.442 2.509 2.509 5.222 4.71 8.090 6.605s5.837 3.43 8.96 4.71c1.536 0.614 3.123 1.178 4.71 1.638 4.762 1.434 9.677 2.099 14.643 2.099s9.882-0.717 14.643-2.099c1.587-0.461 3.174-1.024 4.71-1.638 3.072-1.28 6.093-2.816 8.96-4.71s5.581-4.096 8.090-6.605l66.458-66.458s0 0 0 0v226.048c0 23.040 15.155 42.547 36.096 49.101 4.813 1.485 9.984 2.304 15.309 2.304s10.445-0.819 15.309-2.304c20.941-6.502 36.096-26.010 36.096-49.101v-226.048s0 0 0 0l66.458 66.458c10.035 10.035 23.194 15.053 36.352 15.053s26.266-5.018 36.352-15.053c6.298-6.246 10.598-13.722 12.954-21.709 1.434-4.762 2.099-9.677 2.099-14.643 0-13.158-5.018-26.317-15.053-36.352z" />
<glyph unicode="&#xe915;" glyph-name="jw-faq" d="M512.461 777.574c85.197 0 170.394-0.87 255.59 0.256 66.406 0.87 133.939-47.514 144.384-126.31 0.717-5.581 0.614-11.315 0.614-16.947 0-86.118 0.102-172.186 0-258.304-0.102-80.179-63.334-143.36-143.616-143.462-97.126-0.102-194.253-0.102-291.379 0.102-7.475 0-12.8-2.099-18.074-7.424-31.13-31.642-62.618-62.976-94.003-94.31-20.378-20.378-42.138-16.742-55.142 9.114-14.029 27.955-28.211 55.808-41.933 83.917-2.97 6.144-6.451 8.96-13.568 8.704-65.229-2.355-133.12 46.541-143.821 125.542-0.717 5.274-0.614 10.701-0.666 16.077 0 86.989-0.154 173.978 0 260.966 0.154 78.387 63.795 141.875 142.336 142.029 86.374 0.154 172.8 0 259.174 0zM569.856 504.371c0.666-6.144 0.973-13.619 2.304-20.89 15.053-81.92 99.84-128.205 175.974-95.13 13.107 5.683 22.016 8.55 32.512-4.096 6.912-8.294 18.125-8.448 28.262-4.352 10.035 4.045 15.309 12.032 16.435 22.63 1.229 11.469-4.403 20.122-12.646 27.136-5.478 4.659-6.042 8.704-2.458 15.258 11.981 21.914 16.282 45.414 14.746 70.554-4.045 65.741-64.41 124.262-140.442 116.531-57.651-5.837-112.538-52.941-114.688-127.693zM342.323 407.296c0-14.541 8.397-25.344 21.197-28.109 12.493-2.714 25.395 3.635 31.027 15.718 5.018 10.803 9.677 21.76 14.182 32.768 1.946 4.762 4.915 6.758 10.138 6.707 23.808-0.205 47.616-0.205 71.475 0 5.683 0.051 8.704-2.15 10.752-7.219 4.352-10.752 8.96-21.402 13.773-32 5.786-12.749 18.074-19.61 30.157-17.254 19.046 3.789 27.904 21.606 19.763 40.653-27.699 64.87-55.603 129.638-83.354 194.509-5.018 11.776-13.261 18.995-26.214 19.661-11.776 0.614-21.453-6.656-27.034-19.661-27.699-64.563-55.347-129.126-83.098-193.638-1.792-4.198-2.918-8.448-2.765-12.134zM197.99 505.651c0-31.846 0-63.693 0-95.59 0-7.27 0.922-14.285 5.325-20.378 7.475-10.342 18.944-14.387 30.566-10.906s19.61 14.131 19.917 27.75c0.358 15.462 0.512 30.976 0 46.438-0.256 8.038 2.714 10.291 10.342 10.035 14.848-0.461 29.747-0.256 44.646-0.051 13.978 0.205 24.883 7.373 28.877 18.586 6.502 18.381-6.758 36.608-27.597 37.222-15.77 0.461-31.539 0.307-47.36 0-6.502-0.102-9.062 2.048-8.909 8.704 0.358 13.414 0.41 26.829 0 40.192-0.256 7.373 2.304 9.984 9.728 9.779 15.462-0.41 30.976-0.461 46.438 0 20.582 0.614 33.792 18.074 27.955 36.25-3.789 11.827-14.694 19.405-29.030 19.507-25.6 0.205-51.2 0.102-76.8 0.051-23.142 0-34.048-10.854-34.099-33.843-0.051-31.283 0-62.515 0-93.798zM770.048 505.498c0.051-40.806-31.539-72.448-72.294-72.397-40.294 0-71.885 31.642-71.936 71.834 0 40.806 31.488 72.397 72.294 72.397 40.294 0 71.885-31.59 71.936-71.834zM454.963 490.291q-19.405 0-11.878 17.562c2.56 5.99 5.018 12.032 7.731 17.971 0.922 1.997 1.229 5.12 4.301 4.915 2.355-0.154 2.816-2.816 3.635-4.608 3.942-8.96 7.629-18.022 11.674-26.931 2.816-6.195 2.15-9.626-5.683-8.96-3.226 0.256-6.502 0-9.779 0z" />
<glyph unicode="&#xe916;" glyph-name="jw-favorite" d="M904.038 578.918c0-133.274-151.347-311.706-265.984-402.432-72.755-57.754-179.354-57.754-252.109 0-114.688 90.726-265.984 269.158-265.984 402.432 0 101.53 87.757 183.859 196.045 183.859s196.045-82.33 196.045-183.859c0 101.53 87.757 183.859 196.045 183.859s196.045-82.33 196.045-183.859z" />
<glyph unicode="&#xe917;" glyph-name="jw-fishing" d="M295.373 483.635c-35.584 7.782-58.061 42.957-50.278 78.541 15.667 74.752 73.267 133.632 147.661 150.938-46.49-68.813-74.906-148.275-82.586-230.963-4.966-0.051-9.984 0.461-14.848 1.536zM333.517 92.109c28.416-0.563 51.917 22.016 52.48 50.432l2.765 158.362c225.382-3.942 354.714 36.864 423.475 148.378-143.821 40.090-254.72 154.829-289.894 299.93-113.766-64.87-159.078-192.614-163.021-417.843l-158.362 2.765c-11.11 0.154-22.016-3.277-31.027-9.779-23.040-16.691-28.16-48.896-11.469-71.885 21.453-30.464 54.528-50.79 91.392-56.166 4.045-37.069 23.194-70.81 52.89-93.338 8.755-6.861 19.507-10.65 30.669-10.906zM657.51 244.429l0.41 24.371c-39.322-11.008-79.616-18.432-120.269-22.272l-0.256-14.234c2.253-84.326 121.088-62.464 120.115 12.083zM578.202 774.4c55.45 17.715 113.152 27.648 171.366 29.389 34.458 1.69 67.942-11.622 91.853-36.454 65.485-68.403 19.712-191.539-2.15-263.117-131.891 32.051-233.523 137.267-261.018 270.182zM785.152 683.52c0.307 16.538-12.902 30.208-29.44 30.464-16.538 0.307-30.208-12.902-30.464-29.44-0.307-16.538 12.902-30.208 29.44-30.464 16.538-0.307 30.208 12.902 30.464 29.44z" />
<glyph unicode="&#xe918;" glyph-name="jw-home" d="M510.771 80.384h-209.306c-90.112 0-156.723 66.662-156.774 156.877 0 92.058 0.051 184.115 0 276.224-0.051 55.808 22.682 99.789 68.659 131.123 70.758 48.179 141.466 96.461 213.043 143.36 54.989 36.045 112.691 37.222 167.936 1.638 73.779-47.565 146.176-97.434 218.624-147.046 42.24-28.928 64.768-70.4 65.434-121.19 1.28-98.406 1.331-196.864 0.051-295.322-0.922-71.885-60.467-135.219-131.738-144.026-9.523-1.178-18.995-1.69-28.57-1.69-69.12 0-138.24 0-207.411 0z" />
<glyph unicode="&#xe919;" glyph-name="jw-hot-games" d="M613.325 260.988c0 42.65-27.904 100.915-78.49 164.096-5.683 7.117-14.080 11.162-22.886 11.059-8.909 0-17.357-4.045-23.091-11.11-55.398-68.147-82.432-128.41-77.773-174.592 3.738-29.542 19.302-56.013 42.803-72.704 16.435-14.182 36.813-22.323 58.061-23.245 55.962 0.051 101.325 47.718 101.427 106.496zM637.235 697.417c-21.299 18.995-43.622 38.861-66.355 60.621-17.459 16.64-41.011 24.32-64.358 21.043-22.63-3.174-42.803-16.691-54.989-36.966-32.256-56.627-55.091-118.63-67.482-183.296-4.864 7.373-9.165 15.104-12.902 23.142-12.8 28.365-45.107 40.448-72.141 26.982-6.554-3.277-12.39-7.885-17.203-13.517-45.363-48.742-70.554-114.381-69.99-182.528-1.28-143.258 90.47-269.056 222.515-305.050 24.576-6.502 49.818-9.83 75.162-9.984-32.358 1.28-63.488 13.517-88.73 34.867-35.328 26.112-58.47 66.765-63.59 111.821-6.246 62.822 24.166 135.936 90.368 217.395 16.077 19.763 39.629 31.13 64.358 31.078h0.256c24.678 0 48.128-11.469 64.051-31.283 41.626-51.917 91.29-128.922 91.29-200.704-0.102-85.862-63.488-156.979-145.050-162.816 161.587 5.478 289.843 144.742 289.638 314.522-0.154 128.768-81.101 200.96-174.899 284.672z" />
<glyph unicode="&#xe91a;" glyph-name="jw-inbox" d="M875.469 636.365l-255.949-245.555c-59.443-56.883-155.597-56.883-215.040 0l-255.949 245.555c-0.41-4.608-1.382-8.755-1.382-13.363v-350.003c0.102-80.486 68.096-145.766 152.013-145.869h425.728c83.917 0.102 151.962 65.331 152.013 145.869v350.003c0 4.557-0.973 8.755-1.382 13.363zM576.512 432.077l277.76 266.445c-27.341 43.52-76.442 70.195-129.434 70.349h-425.677c-52.992-0.154-102.042-26.778-129.434-70.349l277.76-266.445c35.686-34.099 93.389-34.099 129.024 0z" />
<glyph unicode="&#xe91b;" glyph-name="jw-language" d="M512 802.355c-195.738 0-354.355-158.669-354.355-354.355s158.669-354.355 354.355-354.355 354.355 158.669 354.355 354.355c-0.205 195.635-158.771 354.15-354.355 354.355zM767.334 595.661h-95.13c-21.299 49.357-49.306 95.488-83.302 137.165 75.213-20.48 139.315-69.734 178.432-137.165zM644.915 448c-0.256-30.054-4.966-59.904-14.080-88.576h-237.67c-9.062 28.672-13.824 58.522-14.080 88.576 0.256 30.054 4.966 59.904 14.080 88.576h237.67c9.062-28.672 13.824-58.522 14.080-88.576zM416.87 300.339h190.31c-25.088-49.51-57.088-95.13-95.13-135.475-38.042 40.346-70.093 86.016-95.13 135.475zM416.87 595.661c25.088 49.51 57.088 95.13 95.13 135.475 38.042-40.346 70.093-86.016 95.13-135.475h-190.31zM435.2 732.774c-34.048-41.626-62.106-87.808-83.456-137.165h-95.13c39.168 67.43 103.322 116.736 178.586 137.165zM230.298 536.576h101.581c-7.68-28.928-11.622-58.675-11.827-88.576 0.205-29.901 4.147-59.699 11.827-88.576h-101.581c-18.176 57.651-18.176 119.501 0 177.203zM256.666 300.339h95.13c21.35-49.357 49.408-95.488 83.456-137.165-75.264 20.429-139.418 69.683-178.586 137.165zM588.954 163.226c33.997 41.626 62.003 87.808 83.302 137.165h95.13c-39.117-67.43-103.219-116.685-178.432-137.165v0zM793.702 359.424h-101.581c7.68 28.928 11.622 58.675 11.827 88.576-0.205 29.901-4.147 59.699-11.827 88.576h101.478c18.176-57.651 18.176-119.501 0-177.203h0.051z" />
<glyph unicode="&#xe91c;" glyph-name="jw-casino" d="M854.835 193.587c0.307 8.192-0.666 16.589-2.56 24.576-8.397 34.97-28.57 59.904-59.392 75.059 0.051 0 0.154 0.102 0.205 0.102-27.341 16.998-68.71 15.002-103.373 19.507-12.8 1.69-21.914 4.608-28.416 7.834 24.678 4.71 67.994 2.97 102.81 33.792 12.544 11.11 18.944 23.194 22.374 32.973 7.936 22.426 7.68 35.379 3.686 58.214s-15.565 40.755-23.142 57.395c-20.992 46.234-21.965 75.93-24.371 128.512-0.819 17.818-4.403 31.078-10.496 48.794-29.235 85.094-70.451 126.362-153.088 136.346-7.168 0.87-43.725 1.434-58.266 1.536-10.496 0-31.539-0.102-42.086 0-85.811 0.41-157.44-49.562-169.83-129.28-1.792-11.571-3.43-26.931-2.253-38.656 1.434-14.541 0.717-33.178-5.018-59.034-7.885-35.738-20.019-51.763-37.888-83.814-7.014-12.646-12.595-25.702-14.899-39.987-2.816-17.306-6.656-34.202-3.123-51.302 5.939-28.826 15.155-48.435 39.578-62.157 24.934-13.978 50.278-22.17 85.606-29.235-5.53-5.478-12.288-8.96-34.714-11.878-34.611-4.506-75.469-3.021-97.741-15.155 0 0 0.051 0 0.102 0-45.158-19.354-70.451-61.082-69.581-104.602 0.461-22.784 3.328-34.509 0.102-68.301-0.358-3.738 0.102-7.578 0.922-11.162 4.915-21.709 23.398-35.584 47.462-35.584h17.613c-4.096 7.117-7.475 14.643-10.086 22.374-9.574 28.467-9.933 60.518 4.403 87.398l3.328-0.922c0.87-38.605 8.192-77.363 31.642-108.851 67.584 0 135.219 0 202.854 0-41.267 76.698-91.341 128.922-130.509 161.69-20.122 16.794-38.963 29.952-54.938 39.885 12.442 2.099 31.898 4.557 61.082 6.451 47.821 3.072 77.978 29.952 85.043 47.206 0 0.051 7.27 12.032 3.584 61.44 27.75-19.558 46.336-39.987 75.418-43.315 2.458-0.256 5.018-0.41 7.68-0.41 29.286 0 54.682 15.36 86.938 36.608 0-11.059-0.512-39.885 2.662-52.736 5.427-22.016 18.278-41.114 79.002-48.742 36.198-4.557 57.549-7.424 69.018-9.011-9.779-6.195-19.814-12.902-30.106-20.275-50.944-36.762-114.227-94.976-158.874-178.739 66.714 0 133.376 0 200.090-0.102 6.912 9.421 12.902 19.456 17.306 30.259 10.291 24.934 13.773 51.456 14.541 78.746l3.328 0.922c14.336-26.88 13.978-58.931 4.352-87.398-2.611-7.782-6.042-15.309-10.189-22.477 4.557 0 9.165 0 13.722 0 28.467 0 49.459 21.606 48.794 46.694-0.614 22.989-1.485 32.87-0.256 69.069zM509.747 375.194c-32.256 3.686-68.762 37.274-89.702 56.832-0.563 0.819-1.178 1.638-1.843 2.458-19.507 23.45-30.106 50.739-30.618 80.947-0.563 34.304-0.307 32.358-0.256 66.611 0 8.192 2.867 10.854 11.213 10.906 18.944 0 66.662 0.205 85.76 32.87 10.035 17.152 22.221 50.637 27.648 70.758 0.563 2.202 3.789 2.816 4.352 0.666 8.141-31.181 20.326-51.149 37.274-70.605 24.832-28.518 56.934-32.666 79.667-33.587 3.891-0.154 7.834 0.102 11.674-0.102 5.888-0.307 8.96-3.226 9.523-8.858 0.154-1.741 0-3.482 0-5.274 0-30.003-0.102-23.808 0-53.862 0.154-34.304-9.984-64.461-30.771-90.522-29.901-31.539-83.866-62.669-113.971-59.238z" />
<glyph unicode="&#xe91d;" glyph-name="jw-logout" d="M503.501 331.008c-24.218 0-43.878-19.661-43.878-43.878v-23.398c0-43.622-35.379-79.002-79.002-79.002h-46.797c-43.622 0-79.002 35.379-79.002 79.002v368.589c0 43.622 35.379 79.002 79.002 79.002h46.797c43.622 0 79.002-35.379 79.002-79.002v-23.398c0-24.218 19.661-43.878 43.878-43.878s43.878 19.661 43.878 43.878v23.398c-0.102 92.058-74.701 166.656-166.707 166.707h-46.797c-92.058-0.102-166.656-74.701-166.707-166.707v-368.589c0.102-92.058 74.701-166.656 166.707-166.707h46.797c92.058 0.102 166.656 74.701 166.707 166.707v23.398c0 24.218-19.661 43.878-43.878 43.878zM827.034 520.397l-134.144 134.144c-17.152 17.152-44.902 17.101-62.054 0-17.152-17.152-17.101-44.902 0-62.054l99.789-99.789-358.758-0.819c-24.218 0-43.878-19.661-43.878-43.878s19.661-43.878 43.878-43.878l360.294 0.819-101.427-101.427c-17.152-17.152-17.152-44.902 0-62.054s44.902-17.152 62.054 0l134.144 134.144c39.936 39.987 39.987 104.755 0.102 144.794z" />
<glyph unicode="&#xe91e;" glyph-name="jw-lottery" d="M508.979 432.128c-18.842-2.918-32.973-9.267-42.394-18.995s-14.131-20.48-14.131-32.154c0-13.978 5.786-24.832 17.306-32.666 11.52-7.782 24.422-11.674 38.758-11.674s26.88 3.891 38.758 11.674c11.827 7.782 17.766 18.688 17.766 32.666 0 11.674-4.813 22.426-14.387 32.154s-23.45 16.077-41.677 18.995zM508.979 479.386c14.285 2.253 25.088 6.81 32.41 13.67 7.322 6.81 10.957 15.77 10.957 26.778 0 9.114-4.25 16.998-12.646 23.654-8.448 6.656-18.995 9.984-31.693 9.984-12.032 0-22.272-3.43-30.72-10.24s-12.646-14.95-12.646-24.371c0-10.701 3.789-19.405 11.469-26.061 7.629-6.656 18.586-11.11 32.87-13.414zM512 804.762c-197.018 0-356.762-159.744-356.762-356.762s159.744-356.762 356.762-356.762 356.762 159.744 356.762 356.762c-0.205 196.966-159.846 356.557-356.762 356.762zM512 179.149c-148.224 0-268.8 120.576-268.8 268.8s120.576 268.8 268.8 268.8 268.8-120.576 268.8-268.8-120.576-268.8-268.8-268.8zM512 681.984c-129.075 0-234.035-105.011-234.035-234.035s105.011-234.035 234.035-234.035 234.035 105.011 234.035 234.035-105.011 234.035-234.035 234.035zM591.616 313.958c-19.968-18.995-47.514-28.518-82.586-28.518s-63.59 9.523-83.558 28.518-29.952 41.677-29.952 67.994c0 16.589 5.683 32.154 17.050 46.797s23.859 24.218 37.53 28.774c-12.339 5.53-22.426 13.875-30.208 25.088s-11.674 23.654-11.674 37.274c0 23.040 9.011 43.059 27.034 59.955s42.65 25.344 73.83 25.344 55.296-8.448 73.318-25.344c18.022-16.896 27.034-36.864 27.034-59.955 0-13.619-3.994-26.061-11.93-37.274-7.987-11.213-18.125-19.558-30.464-25.088 13.67-4.557 26.163-14.131 37.53-28.774s17.050-30.208 17.050-46.797c0-26.317-9.984-48.998-29.952-67.994z" />
<glyph unicode="&#xe91f;" glyph-name="jw-Loyalty-Points" d="M416.205 92.262c-19.149 2.714-38.451 4.096-57.344 8.141-11.213 2.406-22.374 5.12-33.587 7.424-5.888 1.178-5.683 5.274-5.683 9.779 0 51.405 0 102.81 0 154.214 0 32.051 0.102 64.102-0.102 96.102 0 5.12 1.536 8.243 5.939 11.059 52.992 34.048 124.211 31.386 173.312-8.038 17.613-14.182 36.352-20.787 58.675-20.070 21.043 0.666 42.086 0.256 63.13 0.102 25.498-0.154 44.39-18.79 44.39-43.571 0-24.678-19.046-43.366-44.595-43.469-40.909-0.102-81.766-0.051-122.675 0-4.301 0-8.602-0.205-12.8-1.28-9.37-2.355-15.309-10.138-15.206-19.968 0.051-9.523 5.939-17.152 14.95-19.456 3.942-1.024 7.987-1.331 12.083-1.331 51.405 0 102.81 0 154.214 0 22.989 0 42.189 7.578 57.446 25.6 29.85 35.174 60.518 69.683 90.419 104.806 13.363 15.718 29.030 24.32 49.766 18.688 16.282-4.403 26.163-15.974 31.078-31.898v-22.938c-3.226-11.11-8.294-21.248-15.309-30.515-32.768-43.52-65.382-87.091-98.048-130.662-14.234-18.995-31.539-34.458-52.531-45.67-16.384-8.755-34.048-13.568-52.173-16.947h-245.35zM159.334 92.262c-11.213 5.478-15.053 14.438-15.002 26.829 0.307 82.739 0.154 165.478 0.154 248.166 0 19.149 7.731 26.778 26.982 26.829 13.414 0 26.778 0.102 40.192 0 37.478-0.307 65.536-27.699 65.792-65.126 0.358-57.395 0.307-114.79 0-172.134-0.154-30.106-17.971-53.299-46.797-62.464-1.792-0.563-3.533-1.382-5.325-2.099h-65.997zM327.578 665.958c1.485 49.254 19.354 90.163 61.594 118.118 49.408 32.614 116.429 23.859 156.262-20.122 4.966-5.478 9.728-11.213 13.978-17.306 3.072-4.403 4.659-4.813 7.936-0.102 10.701 15.514 23.706 28.672 39.68 38.861 45.773 29.030 109.568 22.528 148.531-15.309 46.131-44.851 56.883-115.405 26.88-173.158-17.869-34.355-43.622-62.106-71.68-87.962-42.598-39.219-87.398-75.878-131.43-113.408-10.24-8.704-21.146-9.267-31.283-0.512-53.35 46.080-109.21 89.395-158.413 140.134-22.272 22.989-41.267 48.384-52.685 78.746-3.226 8.55-5.53 17.306-7.168 26.266-1.536 8.448-2.509 17.050-2.15 25.754z" />
<glyph unicode="&#xe920;" glyph-name="jw-mega-win" d="M672.205 636.262l-48.077 126.515h84.736c65.331-0.154 126.72-31.334 165.376-83.968l27.546-37.632c11.725-16.026 20.275-34.099 25.19-53.35h-241.92c-2.509 16.538-6.81 32.819-12.851 48.435zM607.027 610.867l-57.754 151.91h-74.598l-58.726-155.75c-2.253-6.246-4.096-12.698-5.581-19.149h203.622c-1.741 7.834-4.096 15.514-6.963 22.989zM511.386 311.962l97.485 183.757c2.458 7.219 4.403 14.643 5.837 22.17h-207.821c1.587-9.011 3.891-17.869 7.014-26.47l97.536-179.456zM350.874 632.32l48.998 130.458h-84.531c-63.949-0.154-124.211-30.003-163.072-80.794l-28.723-37.581c-12.646-16.845-21.709-36.096-26.573-56.576h241.408c2.714 15.206 6.912 30.106 12.544 44.442zM685.619 517.888c-2.202-16.742-6.246-33.126-12.032-48.998-0.512-1.382-131.379-247.45-131.482-247.501-8.602-16.691-29.133-23.296-45.824-14.694-6.195 3.174-11.264 8.243-14.541 14.387 0 0-132.045 241.818-132.608 243.302-6.246 17.254-10.445 35.226-12.442 53.453h-240.435c6.451-31.283 22.733-59.75 46.438-81.152l279.501-269.619c24.525-21.914 56.32-33.946 89.19-33.894 33.587 0.051 65.997 12.544 90.931 34.97l277.606 267.008c24.32 21.76 41.062 50.739 47.77 82.688h-242.125z" />
<glyph unicode="&#xe921;" glyph-name="jw-menu" d="M202.598 638.976h618.803c23.296 0 42.189 23.552 42.189 52.582s-18.893 52.582-42.189 52.582h-618.803c-23.296 0-42.189-23.552-42.189-52.582s18.893-52.582 42.189-52.582zM821.402 500.582h-618.803c-23.296 0-42.189-23.552-42.189-52.582v0c0-29.030 18.893-52.582 42.189-52.582h618.803c23.296 0 42.189 23.552 42.189 52.582v0c0 29.030-18.893 52.582-42.189 52.582zM821.402 257.024h-618.803c-23.296 0-42.189-23.552-42.189-52.582s18.893-52.582 42.189-52.582h618.803c23.296 0 42.189 23.552 42.189 52.582s-18.893 52.582-42.189 52.582z" />
<glyph unicode="&#xe922;" glyph-name="jw-news" d="M150.784 146.995v361.216c0 66.509 53.914 120.422 120.422 120.422v0-481.587c0-33.28-26.931-60.211-60.211-60.211v0c-33.28 0-60.211 26.931-60.211 60.211zM873.216 658.688v-421.376c0-83.098-67.379-150.477-150.477-150.477h-408.064c10.394 17.766 16.742 38.144 16.742 60.211v511.642c0 83.098 67.379 150.477 150.477 150.477h240.794c83.098 0 150.477-67.379 150.477-150.477zM451.789 568.422h60.211c16.64 0 30.106 13.466 30.106 30.106v60.211c0 16.64-13.466 30.106-30.106 30.106h-60.211c-16.64 0-30.106-13.466-30.106-30.106v-60.211c0-16.64 13.466-30.106 30.106-30.106zM752.794 267.418h-301.005c-16.64 0-30.106-13.466-30.106-30.106v0c0-16.64 13.466-30.106 30.106-30.106h301.005c16.64 0 30.106 13.466 30.106 30.106v0c0 16.64-13.466 30.106-30.106 30.106zM752.794 387.789h-301.005c-16.64 0-30.106-13.466-30.106-30.106v0c0-16.64 13.466-30.106 30.106-30.106h301.005c16.64 0 30.106 13.466 30.106 30.106v0c0 16.64-13.466 30.106-30.106 30.106zM752.794 508.211h-301.005c-16.64 0-30.106-13.466-30.106-30.106v0c0-16.64 13.466-30.106 30.106-30.106h301.005c16.64 0 30.106 13.466 30.106 30.106v0c0 16.64-13.466 30.106-30.106 30.106zM752.794 628.582h-120.422c-16.64 0-30.106-13.466-30.106-30.106v0c0-16.64 13.466-30.106 30.106-30.106h120.422c16.64 0 30.106 13.466 30.106 30.106v0c0 16.64-13.466 30.106-30.106 30.106z" />
<glyph unicode="&#xe923;" glyph-name="jw-privacy-policy" d="M869.376 577.894c1.075-44.544-1.229-95.795-14.336-145.971-32-122.624-101.018-215.296-206.387-278.374-37.171-22.272-74.957-43.366-112.128-65.587-16.282-9.728-31.283-10.342-47.872-0.307-45.005 27.187-92.16 50.688-135.834 80.23-102.554 69.376-165.734 167.373-190.259 292.454-6.451 32.87-8.346 66.202-8.192 99.686 0.154 24.115-0.051 48.282 0 72.397 0.205 48.23 30.464 80.179 76.442 79.872 55.091-0.307 107.674 11.366 157.85 35.021 26.778 12.595 51.405 28.928 74.291 48.128 31.59 26.47 64.87 27.187 96.819 1.331 55.859-45.261 118.886-72.141 188.826-81.971 18.278-2.56 36.71-0.922 54.938-3.277 39.68-5.171 65.075-35.021 65.741-76.749 0.256-16.589 0-33.178 0-56.832zM477.286 377.754c0-18.586-0.154-37.171 0-55.808 0.256-20.378 15.309-36.25 34.253-36.557 19.046-0.307 34.714 15.974 34.816 36.813 0.205 36.915 0.205 73.83 0 110.694-0.102 21.094-14.95 36.454-34.714 36.454-19.661 0-34.253-15.514-34.458-36.71-0.154-18.33 0-36.608 0-54.938zM555.11 545.485c-0.102 25.242-19.661 45.824-43.366 45.517-24.115-0.307-43.008-20.429-42.957-45.926 0-25.293 19.2-45.312 43.366-45.261 24.115 0.051 43.059 20.224 42.957 45.67z" />
<glyph unicode="&#xe924;" glyph-name="jw-promotion" d="M724.429 643.84c10.598-1.485 21.35 0.102 32-1.587 49.51-7.782 83.763-44.39 85.299-91.955 0.41-11.827-0.102-23.706 0.154-35.533 0.154-6.195-2.56-8.755-8.96-8.141-1.638 0.154-3.328 0-4.966 0-210.534 0-421.12 0-631.654 0-14.131 0-14.285 0-14.080 13.414 0.205 13.67-0.563 27.341 1.126 41.011 5.427 45.056 46.797 81.203 94.72 82.227 7.731 0.154 15.462 0 23.808 0-0.666 3.891-3.43 5.53-5.325 7.526-34.765 35.738-28.16 84.48-1.536 115.712 26.419 31.027 60.826 46.643 103.373 44.339 26.266-1.434 46.746-14.029 63.795-31.949 20.429-21.453 35.789-46.131 47.77-72.653 0.768-1.69 1.536-3.379 2.406-5.018 0.205-0.41 0.768-0.614 1.894-1.434 1.997 5.632 3.789 11.059 5.734 16.384 9.574 26.573 23.347 50.739 45.926 69.376 63.949 52.787 167.731 18.893 184.678-60.006 6.349-29.645-1.229-55.142-23.142-77.005-1.229-1.229-3.277-2.099-3.072-4.762zM573.44 644.966c13.67 0.768 33.178 3.43 51.917 9.216 21.658 6.707 42.701 14.95 59.341 30.566 6.656 6.298 12.134 13.875 11.213 22.938-2.202 22.221-14.182 38.605-36.096 47.206-21.504 8.448-41.882 6.195-59.546-9.011-14.797-12.749-22.938-29.44-29.082-47.104-4.659-13.466-9.165-27.034-13.926-40.499-5.376-15.104-6.195-13.978 16.179-13.312zM458.547 644.71c2.406 0 3.789 0 5.171 0 11.264-0.307 11.418 0 7.834 10.342-6.502 18.79-14.899 36.659-26.214 53.35-6.144 9.062-11.418 18.688-18.33 27.238-7.987 9.933-16.896 18.893-30.259 22.374-21.709 5.683-52.736-8.96-64.717-30.822-4.557-8.346-7.168-17.203-4.301-26.624 3.942-13.005 14.336-20.992 25.651-27.904 32.307-19.661 68.71-25.549 105.114-28.058zM538.061 271.821c0 58.675 0.154 117.402-0.154 176.077 0 7.936 2.406 10.496 10.803 10.445 94.31-0.205 188.621-0.205 282.931 0 8.192 0 10.394-2.867 10.342-10.189-0.205-89.242 0.102-178.432-0.205-267.674-0.205-53.504-43.418-94.925-99.584-95.334-64.614-0.461-129.229 0-193.894-0.256-8.038 0-10.394 2.509-10.394 10.035 0.256 58.931 0.154 117.914 0.154 176.896zM485.939 271.462c0-58.675-0.154-117.402 0.154-176.077 0-7.885-2.253-10.547-10.752-10.496-64.358 0.256-128.717-0.154-193.024 0.256-56.218 0.358-99.84 41.626-100.045 94.925-0.358 89.498 0 178.995-0.256 268.442 0 7.731 2.97 9.83 10.752 9.83 94.003-0.205 188.058-0.102 282.061-0.154 10.957 0 11.11-0.205 11.11-10.65 0-58.675 0-117.402 0-176.077z" />
<glyph unicode="&#xe925;" glyph-name="jw-recomanded-games" d="M337.152 726.989c16.845 1.28 36.454-3.021 55.142 5.376 10.547 4.762 20.275 10.24 28.57 18.534 17.101 17.050 33.331 35.072 51.866 50.688 22.272 18.739 56.218 18.842 78.336 0.307 18.79-15.77 35.072-34.202 52.634-51.251 15.77-15.36 34.458-23.347 56.576-23.603 24.166-0.307 48.486 1.997 72.448-0.973 36.454-4.506 57.702-29.286 58.266-66.099 0.358-21.299 0-42.65 0.102-63.949 0.051-21.709 7.987-40.294 23.142-55.757 15.821-16.128 31.693-32.154 47.616-48.179 23.808-24.013 24.525-64.87-3.072-91.597-15.104-14.592-29.85-29.542-44.544-44.544-15.155-15.411-23.040-33.997-23.091-55.757-0.051-20.992 0.154-41.984-0.051-62.976-0.461-40.858-26.982-67.482-67.789-67.994-21.299-0.256-42.65 0-63.949-0.102-21.402-0.102-39.526-8.192-54.886-22.886-17.869-17.203-34.304-35.891-53.35-51.917-22.118-18.586-56.064-18.432-78.336 0.307-18.79 15.821-35.021 34.253-52.634 51.251-15.565 15.053-33.997 23.142-55.706 23.245-20.992 0.102-41.984-0.154-62.976 0.051-41.318 0.41-67.891 27.085-68.25 68.506-0.205 20.685 0 41.37 0 62.054 0 22.118-8.141 40.806-23.45 56.627-17.254 17.818-35.942 34.253-51.866 53.35-17.715 21.197-17.664 55.706 0 76.902 15.974 19.098 34.611 35.533 51.866 53.35 15.36 15.821 23.245 34.509 23.45 56.627 0.256 24.166-1.997 48.486 1.024 72.448 4.454 35.891 29.030 57.139 65.331 58.061 11.776 0.307 23.552 0 37.683 0zM463.821 314.317c3.123 0.922 4.966 3.686 7.168 5.888 30.874 30.771 61.645 61.594 92.467 92.365 40.909 40.909 81.766 81.971 122.88 122.675 5.683 5.632 5.786 9.062-0.102 14.387-9.165 8.294-18.125 16.998-26.266 26.317-6.093 7.014-9.882 5.632-15.77-0.358-56.269-56.627-112.794-112.998-169.216-169.421q-11.162-11.162-21.965-0.358c-24.73 24.73-49.562 49.357-74.138 74.291-4.864 4.915-8.090 5.683-13.107 0.256-9.523-10.24-19.558-20.019-29.645-29.696-4.147-3.994-4.25-6.758-0.051-10.906 40.806-40.602 81.459-81.357 122.163-122.010 1.536-1.536 2.918-3.43 5.581-3.482z" />
<glyph unicode="&#xe926;" glyph-name="jw-referral" d="M512 333.568c-63.181 0-114.432 51.251-114.432 114.432s51.251 114.432 114.432 114.432 114.432-51.251 114.432-114.432-51.251-114.432-114.432-114.432zM331.315 333.568h-133.99c-15.821 0-28.621 12.8-28.621 28.621 0.563 84.89 62.822 156.672 146.79 169.216 15.667 2.202 30.106-8.704 32.307-24.371 0.563-3.942 0.256-7.987-0.819-11.878-4.403-15.36-6.605-31.232-6.605-47.206 0-25.446 5.734-50.586 16.742-73.523 6.81-14.285 0.717-31.334-13.517-38.144-3.84-1.843-7.987-2.765-12.237-2.765h-0.102zM655.053 104.704h-286.054c-15.821 0-28.621 12.8-28.621 28.621 0 94.771 76.851 171.622 171.622 171.622s171.622-76.851 171.622-171.622c0-15.821-12.8-28.621-28.621-28.621zM683.622 562.432c-63.181 0-114.432 51.251-114.432 114.432s51.251 114.432 114.432 114.432 114.432-51.251 114.432-114.432-51.251-114.432-114.432-114.432zM340.378 562.432c-63.181 0-114.432 51.251-114.432 114.432s51.251 114.432 114.432 114.432 114.432-51.251 114.432-114.432-51.251-114.432-114.432-114.432zM826.675 333.568h-133.99c-15.821 0-28.57 12.902-28.518 28.672 0 4.25 0.973 8.397 2.765 12.237 11.008 22.938 16.691 48.077 16.691 73.523 0 15.974-2.304 31.846-6.758 47.206-4.352 15.206 4.403 31.027 19.61 35.379 3.891 1.126 7.987 1.382 12.032 0.819 83.917-12.544 146.227-84.378 146.79-169.216 0-15.821-12.8-28.621-28.621-28.621z" />
<glyph unicode="&#xe927;" glyph-name="jw-responsible-gaming" d="M690.586 485.888c-4.301 0-8.653 1.382-12.237 4.096-6.963 5.222-9.83 14.234-7.219 22.477l19.2 61.594-48.538 39.526c-6.502 5.53-8.909 14.592-5.939 22.63 2.918 8.038 10.598 13.363 19.2 13.363h61.286l21.709 60.877c2.97 7.987 10.598 13.312 19.149 13.312s16.179-5.325 19.149-13.312l21.709-60.877h61.286c8.602 0 16.23-5.376 19.2-13.414s0.512-17.101-6.042-22.63l-48.333-39.373 19.968-60.877c2.714-8.243 0-17.306-6.912-22.63s-16.384-5.683-23.603-0.973l-56.269 36.659-55.296-37.018c-3.43-2.304-7.424-3.482-11.366-3.482v0zM445.491 577.792c-4.301 0-8.653 1.382-12.237 4.096-6.963 5.222-9.83 14.234-7.219 22.477l19.2 61.594-48.538 39.526c-6.502 5.53-8.909 14.592-5.939 22.63 2.918 8.038 10.598 13.363 19.2 13.363h61.286l21.709 60.877c2.97 7.987 10.598 13.312 19.149 13.312s16.179-5.325 19.149-13.312l21.709-60.877h61.286c8.602 0 16.23-5.376 19.2-13.414 2.918-8.038 0.512-17.101-6.042-22.63l-48.333-39.373 19.968-60.877c2.714-8.243 0-17.306-6.912-22.63s-16.384-5.683-23.603-0.973l-56.269 36.659-55.296-37.018c-3.43-2.304-7.424-3.482-11.366-3.482v0zM200.397 485.888c-4.301 0-8.653 1.382-12.237 4.096-6.963 5.222-9.83 14.234-7.219 22.477l19.2 61.594-48.538 39.475c-6.502 5.53-8.909 14.592-5.939 22.63 2.918 8.038 10.598 13.363 19.2 13.363h61.286l21.709 60.877c2.97 7.987 10.598 13.312 19.149 13.312s16.179-5.325 19.149-13.312l21.709-60.877h61.286c8.602 0 16.23-5.376 19.2-13.414 2.918-8.038 0.512-17.101-6.042-22.63l-48.333-39.373 19.968-60.877c2.714-8.243 0-17.306-6.912-22.63s-16.384-5.683-23.603-0.973l-56.269 36.659-55.296-37.018c-3.43-2.304-7.424-3.482-11.366-3.482v0zM665.139 386.714h-128.154l17.766 100.045c1.741 10.24 0.87 15.923 0.205 18.33-5.734 21.146-22.989 34.816-43.878 34.816-6.502 0-13.107-1.331-19.61-4.045-7.782-3.226-15.411-11.264-20.89-22.016l-67.174-127.13h-44.595c-50.739 0-91.904-41.165-91.904-91.904v-122.522c0-50.739 41.165-91.904 91.904-91.904v0 214.477c0 16.896 13.722 30.618 30.618 30.618s30.618-13.722 30.618-30.618v-214.477h195.43c58.419 0 108.698 41.216 120.166 98.509l19.558 97.894c11.366 56.883-32.154 109.926-90.112 109.926v0z" />
<glyph unicode="&#xe928;" glyph-name="jw-search" d="M177.92 80.333c-8.96 0-17.408 3.482-23.706 9.83-13.056 13.107-13.056 34.355 0 47.411l179.405 179.405c-96.717 120.576-87.347 299.162 22.323 408.832 57.958 57.958 135.014 89.856 216.986 89.856s158.976-31.898 216.986-89.856c119.603-119.654 119.603-314.266 0-433.92-57.958-57.958-135.014-89.856-216.986-89.856-70.861 0-137.114 23.296-191.898 67.482l-179.354-179.354c-6.298-6.298-14.746-9.83-23.706-9.83zM572.928 703.488c-52.019 0-100.915-20.224-137.677-57.037-36.71-36.71-56.934-85.606-56.934-137.626s20.224-100.966 56.934-137.626c36.762-36.762 85.658-57.037 137.677-57.037s100.915 20.224 137.626 57.037c36.71 36.71 56.934 85.606 56.934 137.626s-20.224 100.915-56.934 137.626c-36.762 36.762-85.606 57.037-137.626 57.037z" />
<glyph unicode="&#xe929;" glyph-name="jw-settings" d="M193.587 264.192c25.344-43.981 81.562-59.085 125.542-33.741 0 0 0.051 0 0.102 0.051l13.619 7.885c25.754-22.016 55.296-39.117 87.245-50.381v-15.718c0-50.739 41.165-91.904 91.904-91.904s91.904 41.165 91.904 91.904v15.718c31.949 11.315 61.542 28.365 87.245 50.432l13.67-7.885c43.981-25.395 100.25-10.291 125.645 33.69s10.291 100.25-33.69 125.645v0l-13.619 7.834c6.144 33.331 6.144 67.482 0 100.813l13.619 7.834c43.981 25.395 59.085 81.613 33.69 125.645-25.395 43.981-81.613 59.085-125.645 33.69l-13.619-7.885c-25.754 22.016-55.347 39.014-87.296 50.278v15.718c0 50.739-41.165 91.904-91.904 91.904s-91.904-41.165-91.904-91.904v-15.718c-31.949-11.315-61.542-28.365-87.245-50.432l-13.67 7.936c-43.981 25.395-100.25 10.291-125.645-33.69s-10.291-100.25 33.69-125.645v0l13.619-7.834c-6.144-33.331-6.144-67.482 0-100.813l-13.619-7.834c-43.878-25.446-58.931-81.562-33.638-125.542zM512 570.573c67.686 0 122.573-54.886 122.573-122.573s-54.886-122.573-122.573-122.573-122.573 54.886-122.573 122.573 54.886 122.573 122.573 122.573z" />
<glyph unicode="&#xe92a;" glyph-name="jw-slot" d="M585.114 214.682l-0.307 3.942c-4.454 52.838-0.922 151.91 11.366 214.016-4.198 1.69-8.755 4.147-13.056 7.885-6.963 6.042-18.227 19.814-15.718 44.595-0.051 15.053-0.051 30.259 0 45.414v1.075c0 23.706 0 48.179-0.307 72.090-0.205 16.538 4.506 30.054 14.131 40.192 9.523 10.035 22.323 15.104 38.042 15.104h1.178c10.394-0.154 20.582-0.205 30.771-0.205h37.376c10.394 0.051 20.736 0 31.078-0.154 0.87 0 1.638-0.102 2.509-0.102 1.178 0.973 2.406 1.997 3.482 2.918 6.144 5.171 9.984 12.8 10.598 20.992s-2.048 16.384-7.322 22.477l-34.509 40.192c-5.53 6.4-13.466 10.086-21.76 10.086-5.734 0-11.315-1.741-16.128-5.069-2.918-1.997-7.014-4.813-12.851-8.602-19.763-13.005-40.602-19.302-63.795-19.302-13.005 0-26.88 2.048-41.37 6.144-6.656 1.843-13.261 3.994-20.224 6.298-19.917 6.451-40.499 13.158-63.283 13.517-13.517 0.205-27.034 0.256-40.55 0.256-8.243 0-41.165-0.102-49.357-0.102-13.619 0-27.238 0.051-40.858 0.256h-1.382c-4.659 0-17.101 0-26.112-9.421-8.192-8.653-9.011-20.019-8.909-27.853 0.461-32.307 0.41-65.28 0.41-97.178 0-20.582 0-41.114 0.051-61.542 0-0.563-0.102-1.178-0.154-1.792-3.123-29.747 18.227-34.509 24.832-35.277 1.331-0.154 2.56-0.205 3.738-0.205 14.234 0 23.808 8.55 28.518 25.446 0.205 0.717 0.41 1.485 0.614 2.15 15.309 44.646 46.797 68.506 91.085 68.864 2.611 0 5.222 0 7.885 0 4.147 0 20.838-0.102 25.037-0.102 6.246 0 12.493 0 18.739 0.205h1.638c6.554 0 6.912-0.819 7.782-2.611 0.154-0.358 0.256-0.563 0.256-0.614-0.358-1.741-3.482-6.298-5.376-9.062-37.274-54.118-68.403-112.794-92.416-174.49-18.842-48.384-31.181-175.718-38.605-231.731l-0.614-4.813c-1.894-14.336-3.533-26.726 5.171-37.069 8.602-10.24 20.787-10.291 33.69-10.291h0.717c5.99 0 15.974 0 28.109 0.102 18.739 0.102 42.65 0.205 64.922 0.205 30.362 0 50.381-0.205 59.392-0.614 0.973 0 1.894-0.051 2.765-0.051 11.571 0 20.429 3.686 26.419 11.008 9.267 11.315 6.912 26.010 6.042 31.539-1.587 10.086-2.458 20.378-3.379 31.283zM795.75 163.994c-0.666 0-1.382 0-2.099 0-6.81 0.307-21.965 0.461-44.954 0.461-16.845 0-34.97-0.102-49.152-0.154-9.216 0-16.742-0.051-21.299-0.051h-0.512c-9.779 0-18.995 0-25.549 7.782-6.554 7.834-5.325 17.203-3.891 28.058l0.461 3.635c5.581 42.394 14.95 146.944 29.235 183.603 18.176 46.694 41.728 91.136 69.939 132.096 1.434 2.099 3.84 5.53 4.096 6.861 0 0-0.102 0.205-0.205 0.461-0.614 1.382-0.922 1.997-5.888 1.997h-1.229c-4.71-0.154-9.472-0.154-14.182-0.154-3.174 0-15.821 0.051-18.944 0.051-1.997 0-3.994 0-5.939 0-33.485-0.307-57.344-18.33-68.966-52.173-0.205-0.512-0.307-1.075-0.461-1.638-3.584-12.749-10.854-19.251-21.606-19.251-0.87 0-1.843 0.051-2.816 0.154-5.018 0.563-21.197 4.198-18.79 26.726 0 0.461 0.102 0.922 0.102 1.331-0.102 15.462-0.051 31.027 0 46.592 0 24.115 0 49.101-0.307 73.574-0.102 5.888 0.512 14.541 6.758 21.094 6.81 7.168 16.23 7.168 19.763 7.168h1.024c10.291-0.154 20.634-0.205 30.925-0.205 6.195 0 31.13 0.051 37.376 0.051 10.24 0 20.48 0 30.72-0.205 17.254-0.256 32.87-5.325 47.923-10.24 5.274-1.741 10.291-3.328 15.309-4.762 10.957-3.072 21.504-4.608 31.334-4.608 17.562 0 33.382 4.762 48.333 14.643 4.403 2.918 7.526 5.018 9.728 6.502 3.635 2.509 7.834 3.84 12.186 3.84 6.298 0 12.288-2.765 16.486-7.629l26.163-30.413c3.994-4.608 5.99-10.854 5.53-17.050s-3.379-11.981-8.038-15.872c-1.229-1.075-2.611-2.202-3.994-3.328-21.146-17.357-39.424-37.939-54.374-61.235-40.038-62.362-54.579-204.186-48.333-278.835l0.256-2.97c0.666-8.243 1.331-16.077 2.56-23.706 0.666-4.198 2.406-15.309-4.557-23.859-4.506-5.53-11.264-8.294-19.968-8.294zM316.723 219.904l-0.256 2.97c-6.298 74.701 8.294 216.525 48.333 278.835 14.95 23.245 33.229 43.878 54.374 61.235 1.382 1.126 2.765 2.304 3.994 3.328 4.659 3.942 7.578 9.728 8.038 15.872 0.051 0.87 0 1.741-0.051 2.662-30.003-2.202-49.971-18.893-60.979-50.893l-0.154-0.666c-7.936-28.365-27.341-44.646-53.197-44.646-2.048 0-4.198 0.102-6.451 0.358-25.958 2.97-51.866 24.474-47.616 64.666v0c-0.102 19.098-0.051 38.349-0.051 57.6v2.816c0 2.918 0 5.837 0 8.755-13.978 4.506-28.467 8.858-44.39 9.114-10.24 0.154-20.48 0.205-30.72 0.205-6.246 0-31.13-0.051-37.376-0.051-10.291 0-20.634 0-30.925 0.205h-1.024c-3.533 0-12.954 0-19.763-7.168-6.195-6.554-6.81-15.155-6.758-21.094 0.358-24.474 0.307-49.459 0.307-73.574 0-15.565 0-31.13 0-46.592 0-0.41-0.102-0.87-0.102-1.331-2.406-22.528 13.773-26.112 18.79-26.726 0.973-0.102 1.946-0.154 2.816-0.154 10.752 0 18.022 6.502 21.606 19.251 0.154 0.563 0.307 1.126 0.461 1.638 11.622 33.843 35.43 51.866 68.966 52.173 1.997 0 3.994 0 5.939 0 3.123 0 15.77-0.051 18.944-0.051 4.71 0 9.472 0 14.182 0.154h1.229c4.966 0 5.274-0.614 5.888-1.946 0.102-0.256 0.205-0.461 0.205-0.461-0.256-1.331-2.662-4.762-4.096-6.861-28.262-40.96-51.763-85.402-69.939-132.096-14.285-36.659-23.603-141.21-29.235-183.603l-0.461-3.635c-1.434-10.854-2.662-20.224 3.891-28.058 6.554-7.782 15.77-7.782 25.549-7.782h0.512c4.557 0 12.083 0 21.299 0.051 14.182 0.051 32.307 0.154 49.152 0.154 22.989 0 38.144-0.154 44.954-0.461 0.717 0 1.434 0 2.099 0 8.755 0 15.462 2.816 19.968 8.294 7.014 8.55 5.222 19.712 4.557 23.859-1.229 7.629-1.843 15.411-2.56 23.706z" />
<glyph unicode="&#xe92b;" glyph-name="jw-sports" d="M803.174 587.878c-8.192-16.794-15.718-34.15-24.832-50.688-47.821-86.886-119.962-148.224-206.131-194.406-86.528-46.336-179.098-74.445-275.712-90.112-12.646-2.048-25.293-4.198-38.4-6.349 87.194-118.221 279.757-172.646 434.688-68.557 155.136 104.243 172.288 297.523 110.387 410.061zM411.29 315.597c76.39 22.733 143.206 53.862 208.128 100.864 73.267 53.043 128.358 109.875 157.44 196.454 1.024 3.123 4.966 15.667 3.533 17.766-9.421 13.773-14.95 19.558-25.702 34.099-5.478-12.339-9.677-22.426-14.438-32.205-42.496-88.166-110.387-152.013-193.434-200.96-88.371-52.070-184.371-83.405-284.672-102.451-15.872-3.021-31.795-5.632-49.715-8.806 7.578-14.336 14.643-26.88 20.941-39.834 14.438 0.051 16.333 0.717 24.73 1.638 55.398 6.4 99.789 17.459 153.19 33.382zM645.222 563.763c39.526 45.21 62.976 96.666 75.827 132.25-95.488 76.493-202.496 97.997-318.362 56.986-142.592-50.432-226.099-183.859-214.17-334.438 1.485-18.739 5.581-37.274 9.267-56.013 21.248 3.482 136.858 23.040 205.875 49.152 74.496 28.211 178.227 79.514 241.51 152.013z" />
<glyph unicode="&#xe92c;" glyph-name="jw-support" d="M538.061 821.606c-108.442 7.168-214.528-32.41-291.021-109.005-76.493-76.646-116.070-182.784-108.544-291.226 13.722-198.246 188.826-347.802 407.347-347.802h184.627c86.016 0 156.006 69.99 156.006 156.006v207.821c0 202.189-153.037 370.893-348.416 384.205zM697.907 475.955h-392.346c-9.523 0-17.254 7.731-17.254 17.254v26.522c0 9.523 7.731 17.254 17.254 17.254h392.346c9.523 0 17.254-7.731 17.254-17.254v-26.522c0-9.523-7.731-17.254-17.254-17.254zM533.35 339.046h-227.738c-9.523 0-17.254 7.731-17.254 17.254v26.522c0 9.523 7.731 17.254 17.254 17.254h227.738c9.523 0 17.254-7.731 17.254-17.254v-26.522c0-9.523-7.731-17.254-17.254-17.254z" />
<glyph unicode="&#xe92d;" glyph-name="jw-tc" d="M437.76 815.718c39.219 0 78.438 0 117.658 0 1.382-0.307 2.765-0.768 4.198-0.819 29.133-0.819 58.163-3.686 87.040-7.373 23.194-2.97 46.797-5.018 68.403-14.694 72.499-32.41 114.483-87.501 123.546-167.117 3.789-33.229 7.424-66.406 8.858-99.84 2.048-47.309 1.638-94.618-0.717-141.875-0.358-7.475-1.792-8.038-7.936-3.84-43.366 29.542-90.982 38.502-142.182 28.979-78.234-14.541-141.158-83.968-147.763-162.509-3.789-45.107 5.837-86.938 31.744-124.518 4.403-6.349 3.738-7.578-4.352-8.090-9.779-0.614-19.558-1.28-29.338-1.485-76.544-1.638-152.832 0.41-228.71 12.288-74.445 11.622-141.568 71.987-157.747 145.408-10.445 47.462-13.824 95.949-15.36 144.435-2.406 76.288 0.358 152.32 12.134 227.942 11.52 74.086 71.629 140.698 144.742 157.645 27.955 6.502 56.576 9.011 85.094 11.571 16.845 1.485 33.792 2.611 50.637 3.84zM497.050 644.71v0c-58.317 0-116.685 0.205-175.002-0.154-27.085-0.154-45.466-26.88-36.71-52.275 5.837-16.998 20.89-27.085 40.602-27.136 113.818 0 227.584 0 341.402 0 1.434 0 2.867 0 4.301 0 27.341 1.434 45.312 28.262 35.942 53.709-5.837 15.872-19.814 25.651-37.683 25.702-57.6 0.102-115.251 0-172.851 0zM424.653 395.725c34.202 0 68.352-0.205 102.554 0.051 22.221 0.154 39.168 17.357 39.27 39.066 0.102 22.17-16.794 40.141-39.117 40.243-68.352 0.307-136.755 0.256-205.107 0-12.851 0-23.706-5.632-31.283-16.282-9.267-13.005-10.65-27.136-3.43-41.318 7.014-13.875 18.739-21.555 34.56-21.658 34.202-0.205 68.352-0.051 102.554-0.051zM879.667 208.845c-4.096-25.139-12.8-48.333-28.058-69.018-34.765-47.053-95.488-69.325-151.962-55.552-58.163 14.182-101.99 61.082-111.36 119.142-13.261 82.278 43.827 159.181 126.003 169.677 79.104 10.086 150.17-42.394 164.301-121.293 0.358-1.894 0.717-3.738 1.126-5.581v-37.325zM760.013 190.669c0 11.469 0.154 22.938 0 34.406-0.256 15.411-10.598 27.034-24.422 27.802-15.411 0.87-27.29-8.602-28.262-24.986-1.485-24.576-1.434-49.254 0-73.779 0.922-16.589 12.339-25.907 27.955-25.242 14.336 0.614 24.525 12.083 24.781 28.109 0.154 11.213 0 22.477 0 33.69zM733.235 273.715c2.867 0 5.734-0.154 8.602 0 11.469 0.614 15.462 4.506 17.306 15.872 1.229 7.424 0.666 14.694-0.256 22.118-0.922 7.731-5.222 12.032-12.595 13.568-6.605 1.382-13.312 0.87-20.019 0.717-12.954-0.307-18.125-5.12-19.507-17.971-0.256-2.611-0.205-5.274-0.205-7.885-0.051-22.579 4.147-26.778 26.675-26.419z" />
<glyph unicode="&#xe92e;" glyph-name="jw-table" d="M873.574 565.914l-104.602-318.669c-13.363-44.902-46.746-81.101-90.47-98.048 11.469 26.675 17.357 55.398 17.306 84.429v306.381c-0.154 118.374-96.102 214.323-214.477 214.477h-50.995c38.758 51.251 105.318 73.011 166.861 54.528l174.234-53.504c80.026-24.832 125.44-109.158 102.144-189.645zM634.573 540.058v-306.381c-0.102-84.582-68.608-153.088-153.19-153.19h-183.859c-84.582 0.102-153.088 68.608-153.19 153.19v306.381c0.102 84.582 68.608 153.088 153.19 153.19h183.859c84.582-0.102 153.088-68.608 153.19-153.19zM512 417.485c0 33.843-27.443 61.286-61.286 61.286s-61.286-27.443-61.286-61.286c0 33.843-27.443 61.286-61.286 61.286s-61.286-27.443-61.286-61.286c0-44.442 47.309-103.885 83.149-134.144 22.733-19.251 56.064-19.251 78.797 0 35.84 30.259 83.149 89.702 83.149 134.144z" />
<glyph unicode="&#xe92f;" glyph-name="jw-theme" d="M152.883 447.693c-1.229 199.27 162.765 359.834 359.322 359.526 198.861-0.307 358.758-162.918 358.912-358.4 0.154-201.062-163.84-360.192-359.168-360.141-200.090 0.051-360.448 164.25-359.066 358.963zM584.499 722.944c-69.888 22.528-178.739 13.005-261.888-60.826-91.29-81.050-118.579-206.182-78.336-314.163 37.939-101.888 126.976-161.331 193.178-173.978 9.83 36.762 19.661 73.574 29.798 111.411-45.005 14.234-79.923 40.294-102.4 81.254-22.63 41.216-27.494 84.736-13.926 129.894 11.264 37.376 32.819 67.635 65.075 89.6 41.984 28.621 88.166 37.018 138.547 24.883 10.138 37.939 20.070 74.957 30.003 111.974zM469.709 286.771c64.666-13.056 119.962 0.922 163.789 48.794 46.541 50.739 56.781 110.285 32.358 174.131-19.354 50.534-56.986 82.842-110.029 98.56-28.774-107.418-57.19-213.555-86.118-321.434z" />
<glyph unicode="&#xe930;" glyph-name="jw-top-games" d="M174.131 429.158l112.691-82.278-42.803-132.506c-14.182-42.189 1.024-88.73 37.478-114.381 35.789-26.419 84.736-26.214 120.269 0.614l110.182 81.101 110.234-80.998c45.466-33.434 109.363-23.706 142.797 21.76 19.456 26.47 24.986 60.672 14.899 91.904l-42.803 132.506 112.691 82.278c45.517 33.28 55.45 97.178 22.17 142.746-19.2 26.266-49.766 41.83-82.33 41.83h-138.394l-41.984 130.918c-17.203 53.709-74.701 83.302-128.461 66.099-31.386-10.086-56.013-34.662-66.099-66.099l-41.984-130.918h-138.291c-56.422-0.102-102.093-45.875-101.99-102.298 0-32.512 15.616-63.078 41.83-82.33h-0.102z" />
<glyph unicode="&#xe931;" glyph-name="jw-user" d="M512 803.482c-195.994 0-355.482-159.437-355.482-355.482s159.437-355.482 355.482-355.482 355.482 159.437 355.482 355.482-159.488 355.482-355.482 355.482zM408.934 202.138c3.174 54.374 47.974 97.741 103.066 97.741s99.942-43.366 103.066-97.741c-31.744-13.363-66.56-20.787-103.066-20.787s-71.373 7.424-103.066 20.787zM695.296 254.925c-24.883 77.517-97.638 133.837-183.296 133.837s-158.413-56.32-183.296-133.837c-51.149 48.589-83.302 117.094-83.302 193.075 0 146.995 119.603 266.598 266.598 266.598s266.598-119.603 266.598-266.598c0-75.981-32.102-144.486-83.302-193.075zM615.629 551.68c0-57.242-46.438-103.68-103.68-103.68s-103.68 46.438-103.68 103.68 46.438 103.68 103.68 103.68 103.68-46.438 103.68-103.68z" />
<glyph unicode="&#xe932;" glyph-name="jw-vip" d="M511.539 144.026c-77.466 0-154.88 0.205-232.346-0.205-10.701-0.051-15.718 3.226-19.149 14.438-32.973 130.458-85.197 347.853-114.637 471.091-1.434 4.659-3.174 9.267-2.406 14.387 2.099 13.824 16.179 18.227 28.006 8.397 30.157-25.037 60.109-50.278 90.163-75.418 30.822-25.805 61.798-51.456 92.365-77.568 6.707-5.734 9.523-5.222 13.722 3.021 42.086 82.33 84.582 164.403 126.874 246.579 3.942 7.629 7.987 15.104 17.408 15.36 9.984 0.256 14.182-7.526 18.33-15.514 42.291-82.176 84.787-164.25 126.822-246.579 4.301-8.448 7.219-8.346 13.773-2.816 59.699 50.278 119.552 100.301 179.405 150.426 1.587 1.331 3.072 2.714 4.71 3.942 6.605 5.018 13.67 6.042 20.429 0.819 6.502-5.018 7.322-12.237 4.966-19.917-6.605-21.76-88.269-372.070-116.89-479.181-2.867-9.472-7.885-11.315-16.179-11.315-78.438 0.205-156.928 0.102-235.366 0.102z" />
<glyph unicode="&#xe933;" glyph-name="jw-voucher" d="M817.459 503.552c15.309 0 27.75 12.442 27.75 27.75v27.75c0 76.544-62.259 138.854-138.854 138.854h-388.71c-76.544 0-138.854-62.259-138.803-138.803v-27.853c0-15.309 12.442-27.75 27.75-27.75 0.614 0 1.434 0 2.253 0.102 30.72-0.563 55.552-25.805 55.552-56.678s-24.832-56.064-55.552-56.627c-0.819 0.051-1.587 0.102-2.253 0.102-15.309 0-27.75-12.442-27.75-27.75v-25.6c0-76.544 62.259-138.854 138.854-138.854h388.762c76.544 0 138.854 62.259 138.854 138.854v27.75c0 15.309-12.442 27.75-27.75 27.75-30.618 0-55.552 24.883-55.552 55.552s24.883 55.552 55.552 55.552zM388.864 303.002c0-10.854-8.806-19.661-19.661-19.661s-19.661 8.806-19.661 19.661v289.946c0 10.854 8.806 19.661 19.661 19.661s19.661-8.806 19.661-19.661v-289.946z" />
<glyph unicode="&#xe934;" glyph-name="jw-wallet" d="M785.562 621.231h-486.349c-26.112 0-50.842 11.315-67.942 30.362 16.742 18.688 41.011 30.413 67.942 30.413h547.123c39.782 0.205 39.731 60.621 0 60.774h-547.123c-83.917 0-151.962-68.045-151.962-151.962v-303.974c0-83.917 68.045-151.962 151.962-151.962h486.349c50.381 0 91.187 40.806 91.187 91.187v303.974c0 50.381-40.806 91.187-91.187 91.187zM755.149 347.67c-39.782 0.205-39.782 60.621 0 60.774 39.782-0.205 39.782-60.621 0-60.774z" />
<glyph unicode="&#xe935;" glyph-name="jw-withdrawal" d="M863.13 672.943v-29.235c0-43.008-23.706-80.486-58.522-100.659v129.894c0 32.205-26.317 58.522-58.522 58.522h-468.173c-32.205 0-58.522-26.317-58.522-58.522v-129.894c-34.816 20.173-58.522 57.651-58.522 100.659v29.235c0 64.666 52.378 117.043 117.043 117.043h468.173c64.666 0 117.043-52.378 117.043-117.043zM746.086 234.057c0-80.742-65.536-146.278-146.278-146.278h-175.565c-80.742 0-146.278 65.536-146.278 146.278v409.6c0 16.077 13.158 29.235 29.235 29.235h409.651c16.077 0 29.235-13.158 29.235-29.235v-409.651zM629.043 438.857c0 64.666-52.378 117.043-117.043 117.043s-117.043-52.378-117.043-117.043 52.378-117.043 117.043-117.043 117.043 52.378 117.043 117.043zM512 497.379c-32.205 0-58.522-26.317-58.522-58.522s26.317-58.522 58.522-58.522 58.522 26.317 58.522 58.522-26.317 58.522-58.522 58.522z" />
<glyph unicode="&#xe936;" glyph-name="jw-back" d="M647.731 712.192c0-11.008-4.403-21.504-12.134-29.286l-212.019-212.019c-26.982-26.982-26.982-70.707 0-97.69v0s211.763-211.763 211.763-211.763c15.923-16.486 15.462-42.701-1.024-58.624-16.077-15.514-41.523-15.514-57.6 0l-211.763 211.558c-59.29 59.392-59.29 155.597 0 214.989l212.019 212.173c16.179 16.179 42.445 16.179 58.624 0 7.782-7.782 12.134-18.33 12.134-29.338z" />
<glyph unicode="&#xe937;" glyph-name="jw-blog" d="M847.104 744.602c-32.819 33.024-85.709 33.434-119.808 0.819-4.096-3.891-8.038-7.987-12.032-11.981-64.256-64.256-128.41-128.512-192.717-192.666-43.622-43.571-66.714-95.898-67.482-157.747-0.256-18.074 11.366-29.491 29.235-29.747 2.816 0 5.632 0 8.499 0 0.205-0.768 15.002 1.69 15.155 0.922 20.429 4.608 26.522 4.966 46.592 10.906 30.925 9.165 58.010 25.907 80.845 48.538 70.963 70.349 141.722 140.902 212.019 211.968 33.075 33.434 32.307 86.118-0.256 118.938zM478.976 317.798c-71.373 2.406-71.373 50.176-69.478 114.842s105.626 174.746 105.626 174.746l82.893 82.893h-27.546l-43.674 2.253c-1.638 0.205-3.379 0.307-5.12 0.307-76.39 0.102-152.73 0.205-229.12 0-83.456-0.256-145.152-62.208-145.203-145.664 0-54.682 0-109.363 0-164.045 0-56.269-0.102-112.538 0-168.755 0.102-36.403 16.077-64.051 49.101-79.309 33.69-15.565 65.587-9.83 93.747 14.49 10.701 9.216 20.736 19.251 31.744 28.109 3.994 3.174 9.882 5.53 14.95 5.632 28.928 0.512 57.805 0.205 86.733 0.256 67.584 0.102 135.168-0.922 202.701 0.717 65.382 1.587 122.982 55.194 130.048 120.064 0.87 8.038 1.331 16.128 1.638 24.218l0.41 1.024v121.805s-91.699-77.466-115.661-96.154c-23.962-18.688-92.467-39.782-163.84-37.376zM264.55 522.906c28.211 0.563 56.474 0.614 84.736 0 16.845-0.358 28.672-13.517 28.16-29.235-0.512-15.565-12.288-26.778-29.030-27.136-13.824-0.307-27.597-0.051-41.421-0.051s-27.597-0.205-41.421 0c-17.306 0.307-29.286 11.674-29.542 27.546-0.256 15.718 11.622 28.518 28.57 28.826zM347.494 353.331c-13.466-0.205-26.982 0-40.499 0-13.824 0-27.597-0.205-41.421 0.051-17.306 0.307-29.286 11.674-29.594 27.546-0.307 16.077 11.981 28.672 29.491 28.928 27.597 0.41 55.245 0.461 82.842 0 17.408-0.307 29.645-13.21 29.133-29.235-0.512-15.872-12.442-26.931-29.952-27.187z" />
<glyph unicode="&#xe938;" glyph-name="jw-sports-highlight" d="M712.397 447.181c0-47.053-0.205-94.157 0-141.21 0.256-52.941-44.442-93.44-97.024-87.552-2.509 0.307-5.12 0.358-7.68 0.358-94.413 0-161.587 0.102-255.949-0.102-13.005 0-25.907-1.638-38.861 1.638-42.752 10.854-70.605 50.79-65.587 94.515 0.358 3.021 0.41 6.144 0.41 9.165 0 82.637 0.102 165.274-0.102 247.91 0 13.773-1.741 27.443 1.843 41.165 10.906 41.626 51.2 69.478 93.952 64.512 3.021-0.358 6.144-0.41 9.165-0.41 93.901 0 160.563-0.102 254.413 0.051 12.493 0 24.934 1.843 37.427-1.075 40.653-9.523 68.301-44.493 67.942-86.221-0.205-23.808-0.461-47.565-0.563-71.373s0-47.565 0-71.373c0.205 0 0.358 0 0.563 0zM861.082 448.307c0-48.077 0.102-96.154-0.051-144.23-0.051-18.688-15.77-30.464-32.461-24.832-3.686 1.229-6.81 3.482-9.779 5.888-21.914 17.613-43.776 35.328-65.792 52.787-4.454 3.533-6.349 7.424-6.349 13.056 0.102 64.717 0.102 129.382 0 194.099 0 5.683 2.048 9.523 6.451 13.005 22.067 17.459 43.93 35.123 65.792 52.787 8.704 7.014 17.971 9.677 28.416 4.557 10.394-5.12 13.926-14.029 13.875-25.242-0.154-47.309-0.051-94.618-0.051-141.926z" />
<glyph unicode="&#xe939;" glyph-name="jw-betting" d="M521.523 52.941c-15.616 9.216-19.098 16.384-16.026 34.253 5.171 30.106 10.496 60.16 15.718 90.214 1.331 7.578 4.608 13.926 10.138 19.405 80.333 80.23 160.614 160.512 240.947 240.794 11.93 11.878 25.19 21.043 42.957 21.35 12.8 0.205 23.808-4.198 32.819-12.902 14.95-14.49 29.491-29.338 44.186-44.083 7.475-7.526 11.059-17.152 14.694-26.778v-24.678c-3.789-14.387-12.288-25.6-22.682-35.994-76.595-76.339-153.139-152.73-229.274-229.478-9.779-9.882-20.429-15.206-33.946-17.408-27.034-4.506-54.221-8.55-80.947-14.643h-18.483zM117.043 447.59c0 69.12-0.102 138.24 0 207.36 0.102 49.408 41.677 89.754 91.187 89.344 6.912-0.051 8.704-2.406 8.653-8.96 0-14.336-0.717-28.723 0.922-43.11 5.171-44.8 42.701-79.053 87.91-79.206 60.877-0.205 121.805-0.205 182.682 0 48.486 0.154 87.603 39.168 88.32 87.654 0.154 11.827 0.205 23.654 0 35.482-0.102 5.837 1.997 7.987 8.090 8.141 49.664 1.024 92.314-39.27 92.621-88.934 0.41-71.68 0.102-143.36 0.205-215.040 0-5.069-1.741-8.704-5.222-12.186-36.045-35.891-72.038-71.834-107.878-107.93-3.994-3.994-8.090-5.376-13.619-5.376-102.246 0.154-204.544 0.102-306.79 0.102-13.722 0-22.272-5.53-25.754-16.384-4.557-14.387 5.376-29.338 20.48-30.669 3.072-0.256 6.144-0.154 9.267-0.154 82.995 0 165.99 0 248.986 0 2.304 0 4.659 0.102 6.912-0.102 1.178-0.102 2.816-0.358 3.43-1.178 1.178-1.587-0.41-2.816-1.434-3.891-3.584-3.686-7.014-7.526-10.906-10.906-23.296-20.122-36.096-45.517-39.424-76.032-0.87-7.834 0-17.613-5.427-22.63-5.581-5.171-15.258-1.741-23.091-1.741-72.448-0.154-144.947 0.614-217.395-0.358-41.267-0.563-83.456 28.877-91.802 75.674-1.024 5.632-0.973 11.264-0.973 16.896 0 68.096 0 136.192 0 204.288zM396.442 374.17c50.074 0 100.147 0 150.272 0 4.659 0 9.216 0.256 13.722 1.638 10.086 3.226 16.435 11.981 16.384 22.63 0 10.65-6.451 19.302-16.64 22.426-4.198 1.28-8.55 1.587-12.954 1.587-100.147 0-200.346 0-300.493 0-4.403 0-8.704-0.256-12.954-1.587-16.691-5.274-21.965-25.907-10.035-38.605 6.144-6.554 13.875-8.141 22.426-8.090 50.074 0.051 100.147 0 150.272 0zM396.544 481.69v0c52.122 0 104.243 0 156.365 0.051 11.315 0 19.763 6.195 22.938 15.974 3.226 9.83-0.307 20.275-8.909 26.675-5.222 3.891-11.213 4.557-17.51 4.506-101.683-0.051-203.366 0-305.050 0-1.792 0-3.584 0-5.376-0.102-15.104-1.28-25.088-16.128-20.634-30.566 3.328-10.701 11.878-16.538 24.832-16.538 51.098-0.051 102.195 0 153.293 0zM397.261 644.403c-30.054 0-60.109-0.102-90.112 0-33.024 0.102-58.522 25.446-58.829 58.522-0.154 15.411-0.102 30.822 0 46.234 0.154 17.254 10.394 27.802 27.699 28.416 8.192 0.307 16.435 0.461 24.627 0 6.4-0.358 9.472 2.099 11.878 8.038 12.339 29.952 34.611 48.896 66.202 55.45 43.93 9.165 85.709-13.517 103.066-55.194 2.611-6.298 5.888-8.704 12.493-8.294 8.192 0.461 16.435 0.358 24.627 0 15.36-0.614 26.47-10.138 27.034-25.19 0.768-19.456 1.946-39.066-0.819-58.419-4.045-28.672-28.109-49.408-56.986-49.51-30.31-0.154-60.621 0-90.88 0z" />
<glyph unicode="&#xe93a;" glyph-name="jw-luckywheel" d="M500.326 800.666h23.347c1.894-1.843 4.301-0.973 6.4-0.973 12.954 0.102 25.805-0.973 38.502-3.123 80.282-13.517 147.968-51.251 203.93-109.568 51.814-53.965 78.592-120.166 89.088-193.536 1.434-9.83 1.28-19.866 3.635-29.542v-41.779c-1.587-1.485-0.973-3.482-1.126-5.222-1.126-15.923-3.43-31.693-7.014-47.258-14.285-62.208-44.339-115.968-87.603-162.611-55.45-59.802-123.853-94.976-203.981-108.339-9.83-1.638-19.866-1.178-29.645-3.43h-50.381c-7.424 2.867-15.309 1.638-22.938 2.816-87.757 13.568-161.178 53.248-219.187 120.832-48.589 56.576-76.339 121.805-82.637 196.198-0.819 9.728 0.102 19.558-2.15 29.133v9.83c1.485 1.536 0.973 3.482 1.024 5.274 0.614 36.915 7.014 72.755 19.507 107.469 22.221 61.491 59.341 112.64 109.517 154.061 57.19 47.206 123.085 73.318 197.171 78.694 4.813 0.358 9.728-1.229 14.387 1.024zM409.702 207.104c3.328-0.205 3.226 2.765 3.994 4.557 22.323 53.094 44.493 106.24 66.867 159.334 1.536 3.686 1.382 5.53-2.509 7.526-15.258 7.936-27.187 19.558-35.174 34.867-2.15 4.096-4.198 3.635-7.578 2.253-52.275-21.658-104.602-43.264-156.877-64.819-8.346-3.43-8.602-3.533-4.864-11.622 27.853-60.518 72.141-104.397 133.325-130.97 0.922-0.41 1.894-0.768 2.816-1.126zM615.168 207.155c1.587 0.666 3.891 1.434 6.144 2.509 14.438 6.81 28.416 14.49 41.421 23.757 39.373 28.006 69.325 63.744 88.422 108.339 1.741 4.096 1.741 6.093-3.123 8.090-53.146 21.709-106.138 43.674-159.13 65.792-4.301 1.792-6.554 1.382-8.653-2.765-7.834-15.462-19.763-26.931-35.174-34.765-2.714-1.382-3.328-2.56-2.048-5.632 12.032-28.365 23.91-56.832 35.738-85.35 10.547-25.242 20.941-50.586 31.488-75.827 0.768-1.843 0.717-4.813 4.864-4.25zM585.114 478.669c1.229 0.512 2.765 1.075 4.301 1.69 52.122 21.504 104.294 43.008 156.416 64.563q8.243 3.379 4.454 11.725c-23.45 51.354-60.109 90.675-108.698 119.091-7.27 4.25-14.899 7.629-22.682 10.803-4.71 1.946-7.373 1.638-9.011-3.686-1.536-4.864-3.789-9.472-5.786-14.182-20.224-48.026-40.448-96.051-60.672-144.077-1.126-2.662-2.56-4.813 1.485-6.861 15.974-8.090 28.006-20.378 36.557-36.045 0.717-1.331 1.126-3.226 3.635-3.021zM481.894 520.653c-0.41 0.973-0.819 1.894-1.229 2.816-22.067 52.531-44.186 105.062-66.253 157.594-3.43 8.141-3.43 8.243-11.725 4.506-31.795-14.234-59.648-33.997-82.995-59.853-19.558-21.658-36.454-45.158-47.206-72.602-1.536-3.891-0.973-5.53 3.123-7.168 23.142-9.318 46.080-18.944 69.12-28.467 30.208-12.493 60.416-24.986 90.624-37.376 2.15-0.87 4.762-3.379 6.656 0.614 8.090 16.64 21.146 28.365 37.325 36.864 1.178 0.614 2.765 1.126 2.509 3.021zM512.051 419.738c15.616 0 27.699 12.442 27.597 28.314-0.102 15.616-12.083 27.853-27.392 28.006-15.565 0.154-27.904-12.288-27.904-28.058 0-15.974 12.032-28.262 27.699-28.262zM294.656 216.781c8.294 0 14.029 6.298 13.978 15.309 0 5.53-6.707 11.878-12.493 11.878-9.114 0-15.821-5.683-15.872-13.517-0.051-7.475 6.451-13.67 14.387-13.67zM308.634 665.037c0.154 7.578-6.195 13.875-13.978 13.978s-14.285-6.144-14.285-13.67c0-7.373 6.093-13.363 13.67-13.517 8.038-0.154 14.438 5.683 14.592 13.261zM743.629 665.242c0.051 7.526-6.4 13.824-14.131 13.773-7.782 0-14.182-6.298-14.080-13.875 0.051-7.322 6.246-13.261 13.875-13.363 7.987-0.102 14.336 5.837 14.387 13.414zM511.283 125.952c8.038-0.102 15.002 6.861 14.797 14.694-0.256 7.526-6.81 13.67-14.49 13.619-7.168-0.051-13.261-6.246-13.619-13.824-0.307-6.298 7.168-14.387 13.312-14.49zM508.314 735.386c7.834 0.102 14.285 6.4 14.080 13.824-0.154 7.424-6.81 13.517-14.592 13.312-7.526-0.205-13.824-6.349-13.824-13.517 0-7.475 6.554-13.773 14.336-13.619zM743.629 230.605c-0.154 7.526-6.758 13.67-14.49 13.363-7.629-0.256-13.773-6.298-13.722-13.568 0-7.578 6.4-13.722 14.234-13.67 7.885 0 14.131 6.246 14.029 13.824zM833.382 447.795c0 7.373-6.144 13.619-13.619 13.722-7.629 0.102-14.643-6.349-14.694-13.517-0.051-7.219 6.81-13.722 14.49-13.67 7.526 0 13.773 6.093 13.824 13.466zM217.856 447.437c0 8.397-5.171 14.182-12.749 14.182-7.782 0-14.541-6.349-14.592-13.619 0-7.834 6.093-13.414 14.95-13.619 7.066-0.154 12.288 5.376 12.339 13.056z" />
<glyph unicode="&#xe93b;" glyph-name="jw-transaction" d="M595.814 559.77h182.733c-9.728 25.856-24.883 49.306-44.442 68.813l-97.331 97.382c-19.558 19.507-43.008 34.662-68.864 44.442v-182.733c0-15.411 12.493-27.955 27.955-27.955zM790.682 503.859h-194.867c-46.285 0-83.814 37.53-83.814 83.814v194.867c-4.506 0.307-9.011 0.666-13.568 0.666h-126.157c-77.107-0.102-139.571-62.566-139.674-139.674v-391.117c0.102-77.107 62.566-139.571 139.674-139.674h279.398c77.107 0.102 139.571 62.566 139.674 139.674v237.875c0 4.557-0.358 9.062-0.666 13.568zM638.771 352.819h-72.653v-185.242h-102.554v185.242h-78.285v95.181h253.491v-95.181z" />
<glyph unicode="&#xe93c;" glyph-name="jw-turnover" d="M263.117 570.726h63.642c12.39 0 22.477-9.114 22.477-20.326v-376.678c0-11.213-10.035-20.326-22.477-20.326h-63.642c-12.39 0-22.477 9.114-22.477 20.326v376.678c0 11.213 10.035 20.326 22.477 20.326zM697.242 546.202h63.642c12.39 0 22.477-9.114 22.477-20.326v-352.154c0-11.213-10.035-20.326-22.477-20.326h-63.642c-12.39 0-22.477 9.114-22.477 20.326v352.154c0 11.213 10.035 20.326 22.477 20.326zM480.205 742.554h63.642c12.39 0 22.477-9.114 22.477-20.326v-548.506c0-11.213-10.035-20.326-22.477-20.326h-63.642c-12.39 0-22.477 9.114-22.477 20.326v548.557c0 11.213 10.035 20.326 22.477 20.326z" />
<glyph unicode="&#xe93d;" glyph-name="jw-cricket" d="M823.859 279.603c27.136 50.074 42.547 107.469 42.547 168.397 0 195.738-158.669 354.355-354.355 354.355-37.325 0-73.216-5.837-107.008-16.538l418.816-506.266zM234.24 667.648c-47.821-60.416-76.595-136.602-76.595-219.648 0-195.738 158.669-354.355 354.355-354.355 59.136 0 114.739 14.694 163.738 40.294l-441.498 533.709zM339.149 757.197c-20.275-11.315-39.219-24.627-56.781-39.578l451.482-545.741c18.022 14.49 34.611 30.669 49.459 48.384l-444.16 536.934z" />
<glyph unicode="&#xe940;" glyph-name="jw-hot" d="M383.865 86.678c-144.31 81.331-182.33 158.251-160.592 263.453 16.019 77.656 68.521 140.87 73.575 218.3 19.814-32.265 32.35-70.931 34.397-112.356l0.022-0.555c73.15 91.379 118.361 207.901 121.185 334.898l0.016 0.631s185.777-109.18 197.994-274.189c10.311 20.867 16.342 45.449 16.342 71.42 0 18.435-3.033 36.158-8.633 52.686l0.334-1.163c47.998-34.921 328.858-345.509-38.054-553.113 19.030 40.17 30.145 87.281 30.145 136.983 0 107.113-51.625 202.178-131.345 261.666l-0.859 0.613c8.026-35.994-6.016-170.22-58.988-229.235 14.697 98.562-13.957 140.209-13.957 140.209-9.455-42.156-26.081-79.331-48.686-112.048l0.687 1.062c-24.16-29.549-38.801-67.691-38.801-109.26 0-33.274 9.377-64.362 25.637-90.751l-0.424 0.749z" />
</font>
</defs>
</svg>
